Скачать через торрент музыку Ванечка Vanechka бесплатно без регистрации torrent

Если у вас наблюдаются проблемы со скриншотами, переходом по ссылками, скачиванием торрентов - проблемы в блокировщике рекламы AdBlock. #хорошегоДня!


Статистика раздачи
Размер:  322 MB   |    Зарегистрирован:  2 года 9 месяцев   |    .torrent скачан:  22 раза   |   
Раздают:  1  
   
Загрузка...
 
Автор Сообщение

Galfimbul

avatar Galfimbul


Ванечка | Vanechka

Жанр: Score
Композитор: Юрий Потеенко / Yury Poteyenko
Год выпуска диска: 2007
Страна-производитель диска: Russia
Издатель (лейбл): KeepMoving Records
Номер по каталогу: KMRCD 003
Аудиокодек: FLAC (*.flac)
Тип рипа: tracks+.cue
Битрейт аудио: lossless
Продолжительность: 00:44:20
Источник: собственный рип
Наличие сканов в содержимом раздачи: да
Limited edition of 2000 copies.
Треклист:
1. Moscow, 1998 (Main Title) (02:04)
2. A Day Of A Life (04:11)
3. After A Crush (01:40)
4. On Her Own With A Child (01:55)
5. Prayer (02:43)
6. Uninvited Guests (02:08)
7. Exam ("Serenade" by Franz Schubert) (01:50)
Arrangement by Yuri Poteyenko. Performed by Yuri Poteyenko (piano) and Andrei Ikov (trumpet).
8. Orphanage (02:09)
9. Together Again (02:41)
10. Bathing (02:06)
11. Diner At A Restaurant (03:00)
12. The Chosen One (04:09)
13. Pendulum Of Life (02:59)
14. Christening (01:18)
15. Siege (01:43)
16. Together/End Credits (04:43)
17. Executioners (03:01)
Performed by Nadezhda Kopytina. Music by Yuri Poteyenko. Lyrics by Yelena Nikolaeva.
Exact Audio Copy V1.0 beta 3 from 29. August 2011

EAC extraction logfile from 22. March 2014, 12:28

Yury Poteyenko / Vanechka

Used drive : PLEXTOR DVDR PX-L890SA Adapter: 0 ID: 1

Read mode : SecureUtilize accurate stream : YesDefeat audio cache : YesMake use of C2 pointers : No

Read offset correction : 6Overread into Lead-In and Lead-Out : NoFill up missing offset samples with silence : YesDelete leading and trailing silent blocks : NoNull samples used in CRC calculations : YesUsed interface : Native Win32 interface for Win NT & 2000Gap handling : Appended to previous track

Used output format : User Defined EncoderSelected bitrate : 768 kBit/sQuality : HighAdd ID3 tag : NoCommand line compressor : C:\Program Files\Exact Audio Copy\FLAC\FLAC.EXEAdditional command line options : -V -8 -T "Genre=%genre%" -T "Artist=%artist%" -T "Title=%title%" -T "Album=%albumtitle%" -T "Date=%year%" -T "Tracknumber=%tracknr%" -T "Comment=%comment%" %source%

TOC of the extracted CD

Track | Start | Length | Start sector | End sector --------------------------------------------------------- 1 | 0:00.00 | 2:04.40 | 0 | 9339 2 | 2:04.40 | 4:11.18 | 9340 | 28182 3 | 6:15.58 | 1:40.08 | 28183 | 35690 4 | 7:55.66 | 1:55.60 | 35691 | 44375 5 | 9:51.51 | 2:43.55 | 44376 | 56655 6 | 12:35.31 | 2:08.11 | 56656 | 66266 7 | 14:43.42 | 1:50.03 | 66267 | 74519 8 | 16:33.45 | 2:09.03 | 74520 | 84197 9 | 18:42.48 | 2:41.06 | 84198 | 96278 10 | 21:23.54 | 2:06.20 | 96279 | 105748 11 | 23:29.74 | 3:00.27 | 105749 | 119275 12 | 26:30.26 | 4:09.00 | 119276 | 137950 13 | 30:39.26 | 2:59.52 | 137951 | 151427 14 | 33:39.03 | 1:18.14 | 151428 | 157291 15 | 34:57.17 | 1:43.67 | 157292 | 165083 16 | 36:41.09 | 4:43.44 | 165084 | 186352 17 | 41:24.53 | 3:01.72 | 186353 | 199999

Track 1

Filename F:\torrent\Vanechka_Yury Poteyenko\score\01 Moscow, 1998 (Main Title).wav

Pre-gap length 0:00:02.00

Peak level 96.6 % Extraction speed 4.6 X Track quality 100.0 % Test CRC 39CD521E Copy CRC 39CD521E Track not present in AccurateRip database Copy OK

Track 2

Filename F:\torrent\Vanechka_Yury Poteyenko\score\02 A Day Of A Life.wav

Pre-gap length 0:00:01.57

Peak level 96.6 % Extraction speed 5.7 X Track quality 100.0 % Test CRC 75CD3788 Copy CRC 75CD3788 Track not present in AccurateRip database Copy OK

Track 3

Filename F:\torrent\Vanechka_Yury Poteyenko\score\03 After A Crush.wav

Pre-gap length 0:00:01.57

Peak level 96.6 % Extraction speed 5.0 X Track quality 100.0 % Test CRC 893990C7 Copy CRC 893990C7 Track not present in AccurateRip database Copy OK

Track 4

Filename F:\torrent\Vanechka_Yury Poteyenko\score\04 On Her Own With A Child.wav

Pre-gap length 0:00:01.57

Peak level 96.6 % Extraction speed 5.4 X Track quality 100.0 % Test CRC DC1CA91D Copy CRC DC1CA91D Track not present in AccurateRip database Copy OK

Track 5

Filename F:\torrent\Vanechka_Yury Poteyenko\score\05 Prayer.wav

Pre-gap length 0:00:01.57

Peak level 96.6 % Extraction speed 6.1 X Track quality 100.0 % Test CRC 5DCF35B9 Copy CRC 5DCF35B9 Track not present in AccurateRip database Copy OK

Track 6

Filename F:\torrent\Vanechka_Yury Poteyenko\score\06 Uninvited Guests.wav

Pre-gap length 0:00:01.57

Peak level 96.6 % Extraction speed 4.9 X Track quality 99.9 % Test CRC DA16EF7E Copy CRC DA16EF7E Track not present in AccurateRip database Copy OK

Track 7

Filename F:\torrent\Vanechka_Yury Poteyenko\score\07 Exam (''Serenade'' by Franz Schubert) - Arrangement by Yuri Poteyenko.wav

Pre-gap length 0:00:01.57

Peak level 96.6 % Extraction speed 6.0 X Track quality 100.0 % Test CRC 60DFC92E Copy CRC 60DFC92E Track not present in AccurateRip database Copy OK

Track 8

Filename F:\torrent\Vanechka_Yury Poteyenko\score\08 Orphanage.wav

Pre-gap length 0:00:01.57

Peak level 88.1 % Extraction speed 6.5 X Track quality 100.0 % Test CRC 694133C2 Copy CRC 694133C2 Track not present in AccurateRip database Copy OK

Track 9

Filename F:\torrent\Vanechka_Yury Poteyenko\score\09 Together Again.wav

Pre-gap length 0:00:01.57

Peak level 96.6 % Extraction speed 7.0 X Track quality 100.0 % Test CRC 2C79C3A6 Copy CRC 2C79C3A6 Track not present in AccurateRip database Copy OK

Track 10

Filename F:\torrent\Vanechka_Yury Poteyenko\score\10 Bathing.wav

Pre-gap length 0:00:01.57

Peak level 96.6 % Extraction speed 6.9 X Track quality 100.0 % Test CRC 75EBDD75 Copy CRC 75EBDD75 Track not present in AccurateRip database Copy OK

Track 11

Filename F:\torrent\Vanechka_Yury Poteyenko\score\11 Diner At A Restaurant.wav

Pre-gap length 0:00:01.57

Peak level 96.6 % Extraction speed 7.6 X Track quality 100.0 % Test CRC 0721E97D Copy CRC 0721E97D Track not present in AccurateRip database Copy OK

Track 12

Filename F:\torrent\Vanechka_Yury Poteyenko\score\12 The Chosen One.wav

Pre-gap length 0:00:01.57

Peak level 96.6 % Extraction speed 7.4 X Track quality 99.9 % Test CRC E2CBF584 Copy CRC E2CBF584 Track not present in AccurateRip database Copy OK

Track 13

Filename F:\torrent\Vanechka_Yury Poteyenko\score\13 Pendulum Of Life.wav

Pre-gap length 0:00:01.57

Peak level 96.6 % Extraction speed 8.2 X Track quality 100.0 % Test CRC 51332B2C Copy CRC 51332B2C Track not present in AccurateRip database Copy OK

Track 14

Filename F:\torrent\Vanechka_Yury Poteyenko\score\14 Christening.wav

Pre-gap length 0:00:01.57

Peak level 96.5 % Extraction speed 6.9 X Track quality 100.0 % Test CRC 76836ABA Copy CRC 76836ABA Track not present in AccurateRip database Copy OK

Track 15

Filename F:\torrent\Vanechka_Yury Poteyenko\score\15 Siege.wav

Pre-gap length 0:00:01.57

Peak level 96.6 % Extraction speed 5.9 X Track quality 99.8 % Test CRC 8D572256 Copy CRC 8D572256 Track not present in AccurateRip database Copy OK

Track 16

Filename F:\torrent\Vanechka_Yury Poteyenko\score\16 Together - End Credits.wav

Pre-gap length 0:00:01.57

Peak level 96.6 % Extraction speed 9.4 X Track quality 100.0 % Test CRC 2426AD6A Copy CRC 2426AD6A Track not present in AccurateRip database Copy OK

Track 17

Filename F:\torrent\Vanechka_Yury Poteyenko\score\17 Executioners - perf. by Nadezhda Kopytina.wav

Pre-gap length 0:00:01.57

Peak level 86.1 % Extraction speed 7.7 X Track quality 99.9 % Test CRC AB3EF203 Copy CRC AB3EF203 Track not present in AccurateRip database Copy OK

None of the tracks are present in the AccurateRip database

No errors occurred

End of status report

==== Log checksum D39CAE51E5D9E273491463002F529B8EC633C9B302D56C03757B6276CAC8C35A ====
REM GENRE SoundtrackREM DATE 2007REM DISCID F00A6A11REM COMMENT "ExactAudioCopy v1.0b3"PERFORMER "Yury Poteyenko"TITLE "Vanechka"FILE "01 Moscow, 1998 (Main Title).wav" WAVE TRACK 01 AUDIO TITLE "Moscow, 1998 (Main Title)" PERFORMER "Yury Poteyenko" INDEX 01 00:00:00 TRACK 02 AUDIO TITLE "A Day Of A Life" PERFORMER "Yury Poteyenko" INDEX 00 02:02:58FILE "02 A Day Of A Life.wav" WAVE INDEX 01 00:00:00 TRACK 03 AUDIO TITLE "After A Crush" PERFORMER "Yury Poteyenko" INDEX 00 04:09:36FILE "03 After A Crush.wav" WAVE INDEX 01 00:00:00 TRACK 04 AUDIO TITLE "On Her Own With A Child" PERFORMER "Yury Poteyenko" INDEX 00 01:38:26FILE "04 On Her Own With A Child.wav" WAVE INDEX 01 00:00:00 TRACK 05 AUDIO TITLE "Prayer" PERFORMER "Yury Poteyenko" INDEX 00 01:54:03FILE "05 Prayer.wav" WAVE INDEX 01 00:00:00 TRACK 06 AUDIO TITLE "Uninvited Guests" PERFORMER "Yury Poteyenko" INDEX 00 02:41:73FILE "06 Uninvited Guests.wav" WAVE INDEX 01 00:00:00 TRACK 07 AUDIO TITLE "Exam ('Serenade' by Franz Schubert) - Arrangement by Yuri Poteyenko" PERFORMER "Yury Poteyenko" INDEX 00 02:06:29FILE "07 Exam (''Serenade'' by Franz Schubert) - Arrangement by Yuri Poteyenko.wav" WAVE INDEX 01 00:00:00 TRACK 08 AUDIO TITLE "Orphanage" PERFORMER "Yury Poteyenko" INDEX 00 01:48:21FILE "08 Orphanage.wav" WAVE INDEX 01 00:00:00 TRACK 09 AUDIO TITLE "Together Again" PERFORMER "Yury Poteyenko" INDEX 00 02:07:21FILE "09 Together Again.wav" WAVE INDEX 01 00:00:00 TRACK 10 AUDIO TITLE "Bathing" PERFORMER "Yury Poteyenko" INDEX 00 02:39:24FILE "10 Bathing.wav" WAVE INDEX 01 00:00:00 TRACK 11 AUDIO TITLE "Diner At A Restaurant" PERFORMER "Yury Poteyenko" INDEX 00 02:04:38FILE "11 Diner At A Restaurant.wav" WAVE INDEX 01 00:00:00 TRACK 12 AUDIO TITLE "The Chosen One" PERFORMER "Yury Poteyenko" INDEX 00 02:58:45FILE "12 The Chosen One.wav" WAVE INDEX 01 00:00:00 TRACK 13 AUDIO TITLE "Pendulum Of Life" PERFORMER "Yury Poteyenko" INDEX 00 04:07:18FILE "13 Pendulum Of Life.wav" WAVE INDEX 01 00:00:00 TRACK 14 AUDIO TITLE "Christening" PERFORMER "Yury Poteyenko" INDEX 00 02:57:70FILE "14 Christening.wav" WAVE INDEX 01 00:00:00 TRACK 15 AUDIO TITLE "Siege" PERFORMER "Yury Poteyenko" INDEX 00 01:16:32FILE "15 Siege.wav" WAVE INDEX 01 00:00:00 TRACK 16 AUDIO TITLE "Together - End Credits" PERFORMER "Yury Poteyenko" INDEX 00 01:42:10FILE "16 Together - End Credits.wav" WAVE INDEX 01 00:00:00 TRACK 17 AUDIO TITLE "Executioners - perf. by Nadezhda Kopytina" PERFORMER "Yury Poteyenko" INDEX 00 04:41:62FILE "17 Executioners - perf. by Nadezhda Kopytina.wav" WAVE INDEX 01 00:00:00
AUDIOCHECKER v2.0 beta (build 457) - by Dester - opdester@freemail.hu~~~~~~~~~~~~~~~~~~~~~~~~~~~~~~~~~~-=== НЕ РЕДАКТИРУЙТЕ ЭТОТ ФАЙЛ! ===-

Путь: ...\score

01 -=- 01 Moscow, 1998 (Main Title).flac -=- CDDA (99%)02 -=- 02 A Day Of A Life.flac -=- CDDA (85%)03 -=- 03 After A Crush.flac -=- CDDA (99%)04 -=- 04 On Her Own With A Child.flac -=- CDDA (100%)05 -=- 05 Prayer.flac -=- CDDA (94%)06 -=- 06 Uninvited Guests.flac -=- CDDA (100%)07 -=- 07 Exam (''Serenade'' by Franz Schubert) - Arrangement by Yuri Poteyenko.flac -=- MPEG (100%)08 -=- 08 Orphanage.flac -=- CDDA (100%)09 -=- 09 Together Again.flac -=- CDDA (100%)10 -=- 10 Bathing.flac -=- CDDA (100%)11 -=- 11 Diner At A Restaurant.flac -=- MPEG (89%)12 -=- 12 The Chosen One.flac -=- CDDA (100%)13 -=- 13 Pendulum Of Life.flac -=- CDDA (100%)14 -=- 14 Christening.flac -=- CDDA (100%)15 -=- 15 Siege.flac -=- CDDA (100%)16 -=- 16 Together - End Credits.flac -=- CDDA (92%)17 -=- 17 Executioners - perf. by Nadezhda Kopytina.flac -=- CDDA (99%)

Сводка 87,00% CDDA

5814468


Трекер:  [ 27-Ноя-2014 11:00 ]

  

Скачать .torrent

Размер .torrent файла 14 KB


Размер: 322 MB
Хэш (hash) релиза: dbc91e914b1532ea4859f0c7fab66715f9f4b9d7

Еще никто не оставлял запись к записи скачать торрент Ванечка Vanechka . Будь первым!

!Обратная связь