Скачать через торрент музыку Красная палатка La tenda rossa бесплатно без регистрации torrent

Если у вас наблюдаются проблемы со скриншотами, переходом по ссылками, скачиванием торрентов - проблемы в блокировщике рекламы AdBlock. #хорошегоДня!


Статистика раздачи
Размер:  222 MB   |    Зарегистрирован:  2 года 9 месяцев   |    .torrent скачан:  30 раз   |   
Раздают:  1  
   
Загрузка...
 
Автор Сообщение

Galfimbul

avatar Galfimbul


Красная палатка / La tenda rossa

Название альбома: А.Зацепин / Э.Морриконе - Красная палатка / La tenda rossa
Жанр: Score
Композитор: Александр Зацепин / Ennio Morricone
Год выпуска диска: 2007
Год выпуска фильма: 1969
Страна-производитель диска: Россия
Издатель (лейбл): Арк-Систем Рекордз / AZ Records
Номер по каталогу: ASR 056 / AZ CD 005
Аудиокодек: APE (*.ape)
Тип рипа: image+.cue
Битрейт аудио: lossless
Продолжительность: 00:42:10
Источник: собственный рип
Наличие сканов в содержимом раздачи: да
Треклист:
Музыка Александра Зацепина из кинофильма "Красная палатка"

01. Увертюра
02. Азартная игра
03. На оленях
04. Ледяное танго (Влюблённые)
05. Джаз во льдах
06. Берег моря
07. Деревня
08. Финал


Симфонический оркестр Большого Театра п/у Ю.Реентовича (1, 3, 4, 6, 8),
Государственный оркестр Кинематографии СССР п/у А.Зацепина (2, 4, 5, 7),
Вокальный квартет "Аккорд" (3)


Original soundtrack by Ennio Morricone "La Tenda Rossa"

09. Tema D'amore (Тема Любви)
10. La Tenda Rossa (Красная палатка)
11. Morte al Polo (Смерть на полюсе)
12. Messagio da Roma (Сообщение из Рима)
13. Sono vivi (Они живы!)
14. Addio (Прощание)
15. Altri, dopo di noi (Другие, после нас)
16. Un amore come la neve (Влюблённые на снегу)


Musiche composte e orchestrate da Ennio Morricone,
Orchestra diretta da Bruno Nicolai,
Viola solista: Dino Asciolla
Exact Audio Copy V1.0 beta 3 from 29. August 2011

Отчёт EAC об извлечении, выполненном 16. августа 2014, 20:44

- / Красная палатка / La tenda rossa

Дисковод: ATAPI iHAS122 W Adapter: 1 ID: 1

Режим чтения : ДостоверностьИспользование точного потока : ДаОтключение кэша аудио : ДаИспользование указателей C2 : Нет

Коррекция смещения при чтении : 6Способность читать области Lead-in и Lead-out : НетЗаполнение пропущенных сэмплов тишиной : ДаУдаление блоков с тишиной в начале и конце : НетПри вычислениях CRC использовались нулевые сэмплы : ДаИнтерфейс : Встроенный Win32-интерфейс для Win NT/2000

Выходной формат : Внутренние WAV-операцииФормат сэмплов : 44.100 Гц; 16 бит; стерео

TOC извлечённого CD

Трек | Старт | Длительность | Начальный сектор | Конечный сектор --------------------------------------------------------------------- 1 | 0:00.00 | 3:08.06 | 0 | 14105 2 | 3:08.06 | 1:23.24 | 14106 | 20354 3 | 4:31.30 | 2:51.66 | 20355 | 33245 4 | 7:23.21 | 4:02.10 | 33246 | 51405 5 | 11:25.31 | 2:01.58 | 51406 | 60538 6 | 13:27.14 | 2:50.74 | 60539 | 73362 7 | 16:18.13 | 1:46.47 | 73363 | 81359 8 | 18:04.60 | 1:56.23 | 81360 | 90082 9 | 20:01.08 | 3:33.68 | 90083 | 106125 10 | 23:35.01 | 2:32.11 | 106126 | 117536 11 | 26:07.12 | 4:13.74 | 117537 | 136585 12 | 30:21.11 | 1:42.44 | 136586 | 144279 13 | 32:03.55 | 1:41.73 | 144280 | 151927 14 | 33:45.53 | 2:54.17 | 151928 | 164994 15 | 36:39.70 | 3:13.62 | 164995 | 179531 16 | 39:53.57 | 2:16.49 | 179532 | 189780

Характеристики диапазона извлечения и сообщения об ошибках

Выбранный диапазон

Имя файла D:\РАЗНОЕ\Audio\Красная палатка\Красная палатка , La tenda rossa.wav

Пиковый уровень 100.0 % Скорость извлечения 5.9 X Качество диапазона 100.0 % CRC теста E68EF003 CRC копии E68EF003 Копирование... OK

Ошибок не произошло

Конец отчёта

==== Контрольная сумма отчёта D8B63B2B78FBE0DA2F5A92878C709EF7316FAEA2E17F2EF0DD9BEF3C8077402C ====
Это был первый советско-итальянский кинопроект такого масштаба, с участием суперзвёзд мирового кино того времени - Клаудии Кардинале, Шона Коннери, Питера Финча, и прославленных мастеров отечественного кино - Юрия Визбора, Никиты Михалкова, Донатаса Баниониса, Юрия Соломина, и ещё многих, многих других... Результатом этой совместной работы стал фильм "Красная палатка" (реж. М.Калатозов), получивший признание не только в СССР, но и во всём мире. А музыка из этого фильма прочно осталась в памяти многих кинозрителей, и полюбилась навсегда!.. У вас есть возможность сравнить две музыкальные версии этой кинокартины: одна из них написана композитором Александром Зацепиным, и хорошо известна всем, кто видел картину в СССР. Вторую же звуковую дорожку к фильму, написанную Эннио Морриконе, мало кто слышал... Тем более, если учесть, что итальянской версии фильма в СССР, да и в нынешней России, до сих пор никто не видел, кроме разве что маленькой горстки киноведов и специалистов. Зато теперь у вас есть уникальная возможность сравнить творческий подход двух прославленных мастеров своего жанра к одному и тому же фильму, и решить для себя - чья музыка Вам больше нравится...


Трекер:  [ 27-Ноя-2014 11:00 ]

  

Скачать .torrent

Размер .torrent файла 18 KB


Размер: 222 MB
Хэш (hash) релиза: 56d2c7b90ce1de2b34e0607fa0e822eece6740fb

Торренты, похожие на Красная палатка La tenda rossa скачать торрент

Форум Название Автор Размер S L Добавлен
Саундтреки к фильмам и мультфильмам (mp3) ·· (Score) Красная палатка / La Tenda Rossa / The Red Tent (by Ennio Morricone & Александр Зацепин) - 2007 (1969), MP3, 192 kbps Galfimbul 8851473284 MB 0 0 1321366852

17:20

15-Ноя-11

Саундтреки к фильмам и мультфильмам (lossless) ·· (Score) Красная Палатка / La Tenda Rossa / The Red Tent (Ennio Morricone) - 1994 (1970), WAVPack (image+.cue), lossless Galfimbul 223290724213 MB 0 0 1292268955

22:35

13-Дек-10

Еще никто не оставлял запись к записи скачать торрент Красная палатка La tenda rossa . Будь первым!

!Обратная связь