Скачать через торрент музыку Солдаты 2 - 2006 бесплатно без регистрации torrent

Если у вас наблюдаются проблемы со скриншотами, переходом по ссылками, скачиванием торрентов - проблемы в блокировщике рекламы AdBlock. #хорошегоДня!


Статистика раздачи
Размер:  330 MB   |    Зарегистрирован:  2 года 9 месяцев   |    .torrent скачан:  32 раза   |   
Раздают:  1  
   
Загрузка...
 
Автор Сообщение

Galfimbul

avatar Galfimbul


Солдаты 2

Жанр: Soundtrack
Год выпуска диска: 2006
Год выпуска фильма: 2004
Страна-производитель диска: Россия
Издатель (лейбл): ООО "Мирэда"
Номер по каталогу: ML CD-0608
Аудиокодек: FLAC (*.flac)
Тип рипа: image+.cue
Битрейт аудио: lossless
Продолжительность: 49:32
Источник: собственный рип
Наличие сканов в содержимом раздачи: да
Треклист:
01. Алексей Маклаков и Конец Фильма - Прапорщик-блюз
02. Конец Фильма - Юность в сапогах
03. Юта - Жили-были
04. Татьяна Анциферова и "Каберне Денев" - Служба идет
05. Леприконсы - Солдаты
06. Butch - До победы
07. Юта - Миру - мир
08. Butch - Войны не будет
09. Конец Фильма - Юность в сапогах-2
10. Юта - Я тебя
11. Ранетки - Зима
12. Конц Фильма - Юность в сапогах (DJ Грув Remix)
13. Ранетки - Зима (instrumental)
Exact Audio Copy V1.0 beta 3 from 29. August 2011

Отчёт EAC об извлечении, выполненном 8. ноября 2014, 13:21

Various / Солдаты 2 (Саундтрек сериала)

Дисковод: SlimtypeDVD A DS8A5SH Adapter: 0 ID: 1

Режим чтения : ДостоверностьИспользование точного потока : ДаОтключение кэша аудио : ДаИспользование указателей C2 : Нет

Коррекция смещения при чтении : 6Способность читать области Lead-in и Lead-out : НетЗаполнение пропущенных сэмплов тишиной : ДаУдаление блоков с тишиной в начале и конце : НетПри вычислениях CRC использовались нулевые сэмплы : ДаИнтерфейс : Встроенный Win32-интерфейс для Win NT/2000

Выходной формат : Пользовательский кодировщикВыбранный битрейт : 128 kBit/sКачество : ВысокийДобавление ID3-тега : НетУтилита сжатия : C:\Program Files (x86)\FLAC\FLAC frontend.exeДополнительные параметры : -V -8 -T "Date=%year%" -T "Genre=%genre%" %source%

TOC извлечённого CD

Трек | Старт | Длительность | Начальный сектор | Конечный сектор --------------------------------------------------------------------- 1 | 0:00.00 | 4:09.17 | 0 | 18691 2 | 4:09.17 | 3:47.60 | 18692 | 35776 3 | 7:57.02 | 3:41.09 | 35777 | 52360 4 | 11:38.11 | 4:29.71 | 52361 | 72606 5 | 16:08.07 | 3:00.03 | 72607 | 86109 6 | 19:08.10 | 3:24.21 | 86110 | 101430 7 | 22:32.31 | 4:11.65 | 101431 | 120320 8 | 26:44.21 | 3:43.61 | 120321 | 137106 9 | 30:28.07 | 3:04.54 | 137107 | 150960 10 | 33:32.61 | 4:12.51 | 150961 | 169911 11 | 37:45.37 | 3:55.32 | 169912 | 187568 12 | 41:40.69 | 3:55.25 | 187569 | 205218 13 | 45:36.19 | 3:53.65 | 205219 | 222758 14 | 52:02.09 | 8:20.39 | 234159 | 271697

Характеристики диапазона извлечения и сообщения об ошибках

Выбранный диапазон

Имя файла D:\Новая папка\Various - Солдаты 2 (Саундтрек сериала).wav

Пиковый уровень 100.0 % Скорость извлечения 4.1 X Качество диапазона 99.9 % CRC теста 2F865DC9 CRC копии 2F865DC9 Копирование... OK

Ошибок не произошло

AccurateRip: сводка

Трек 1 отсутствует в базе данныхТрек 2 отсутствует в базе данныхТрек 3 отсутствует в базе данныхТрек 4 отсутствует в базе данныхТрек 5 отсутствует в базе данныхТрек 6 отсутствует в базе данныхТрек 7 отсутствует в базе данныхТрек 8 отсутствует в базе данныхТрек 9 отсутствует в базе данныхТрек 10 отсутствует в базе данныхТрек 11 отсутствует в базе данныхТрек 12 отсутствует в базе данныхТрек 13 отсутствует в базе данных

Ни одного трека нет в базе AccurateRip

Конец отчёта

==== Контрольная сумма отчёта 0F56A5A8037C434467B3B9E494ED9546C65A4E16421E0E8200B8B312AA047FEC ====
REM GENRE SoundtrackREM DATE 2006REM DISCID A10E260EREM COMMENT "ExactAudioCopy v1.0b3"PERFORMER "Various"TITLE "Солдаты 2 (Саундтрек сериала)"FILE "Various - Солдаты 2 (Саундтрек сериала).flac" WAVE TRACK 01 AUDIO TITLE "Алексей Маклаков и Конец Фильма - Прапорщик - Блюз" PERFORMER "Various" FLAGS DCP INDEX 01 00:00:00 TRACK 02 AUDIO TITLE "Конец Фильма - Юность в сапогах" PERFORMER "Various" FLAGS DCP INDEX 00 04:07:17 INDEX 01 04:09:17 TRACK 03 AUDIO TITLE "Юта - Жили-Были" PERFORMER "Various" FLAGS DCP INDEX 00 07:55:02 INDEX 01 07:57:02 TRACK 04 AUDIO TITLE "Татьяна Анциферова и 'Каберне Денев' - Служба идет" PERFORMER "Various" FLAGS DCP INDEX 00 11:36:11 INDEX 01 11:38:11 TRACK 05 AUDIO TITLE "Леприконсы - Солдаты" PERFORMER "Various" FLAGS DCP INDEX 00 16:06:07 INDEX 01 16:08:07 TRACK 06 AUDIO TITLE "Butch - До Победы" PERFORMER "Various" FLAGS DCP INDEX 00 19:06:10 INDEX 01 19:08:10 TRACK 07 AUDIO TITLE "Юта - Миру - Мир" PERFORMER "Various" FLAGS DCP INDEX 00 22:30:31 INDEX 01 22:32:31 TRACK 08 AUDIO TITLE "Butch - Войны не будет" PERFORMER "Various" FLAGS DCP INDEX 00 26:42:21 INDEX 01 26:44:21 TRACK 09 AUDIO TITLE "Конец Фильма - Юность в сапогах 2" PERFORMER "Various" FLAGS DCP INDEX 00 30:26:07 INDEX 01 30:28:07 TRACK 10 AUDIO TITLE "Юта - Я тебя" PERFORMER "Various" FLAGS DCP INDEX 00 33:30:61 INDEX 01 33:32:61 TRACK 11 AUDIO TITLE "Ранетки - Зима" PERFORMER "Various" FLAGS DCP INDEX 00 37:43:37 INDEX 01 37:45:37 TRACK 12 AUDIO TITLE "Конец Фильма - Юность в сапогах (DJ Грув Remix)" PERFORMER "Various" FLAGS DCP INDEX 00 41:38:69 INDEX 01 41:40:69 TRACK 13 AUDIO TITLE "Ранетки - Зима (Инструментал)" PERFORMER "Various" FLAGS DCP INDEX 00 45:34:19 INDEX 01 45:36:19


Трекер:  [ 27-Ноя-2014 11:00 ]

  

Скачать .torrent

Размер .torrent файла 14 KB


Размер: 330 MB
Хэш (hash) релиза: f0953ac84ba5a7f2565ea41998414a4a4c2bf361

Еще никто не оставлял запись к записи скачать торрент Солдаты 2 - 2006 . Будь первым!

!Обратная связь