Скачать через торрент музыку Школьные годы чудесные School Daze бесплатно без регистрации torrent

Если у вас наблюдаются проблемы со скриншотами, переходом по ссылками, скачиванием торрентов - проблемы в блокировщике рекламы AdBlock. #хорошегоДня!


Статистика раздачи
Размер:  253 MB   |    Зарегистрирован:  2 года 9 месяцев   |    .torrent скачан:  25 раз   |   
Раздают:  1  
   
Загрузка...
 
Автор Сообщение

Galfimbul

avatar Galfimbul


Школьные годы чудесные / School Daze

Название альбома: "School Daze" Original Motion Picture Soundtrack
Жанр: Soundtrack
Композитор: Bill Lee,Stevie Wonder
Год выпуска диска: 1988(2005)
Год выпуска фильма: 1988
Страна-производитель диска: US
Издатель (лейбл): EMI-Manhattan Records/Capitol
Номер по каталогу: 72438-19970-2-4
Аудиокодек: FLAC (*.flac)
Тип рипа: image+.cue
Битрейт аудио: lossless
Продолжительность: 00:43:26
Источник: собственный рип
Наличие сканов в содержимом раздачи: нет
Треклист:
01.E.U.- Da Butt
02.Tech And The EFFX - Perfect Match
03.The Rays (Tisha Campbell) - Be Alone Tonight
04.Jiggaboos & Wannabees Chorus (Kyme & Tisha Campbell) - Straight And Nappy
05.Kenny Barron & Terence Blanchard - One Little Acorn (Piano/Trumpet Duo)
06.The Morehouse College Glee Club - I'm Building Me A Home
07.Keith John - I Can Only Be Me
08.Kenny Barron - One Little Acorn (Piano Solo)
09.Phyllis Hyman - Be One
10.The Natural Spirit Orchestra - Wake Up Suite
11.Pieces Of A Dream - We've Already Said Goodbye (Before We Said Hello)
Exact Audio Copy V1.0 beta 3 from 29. August 2011

EAC extraction logfile from 7. October 2014, 5:15

Various Artists / School Daze Soundtrack

Used drive : hp DVD RW AD-7586H Adapter: 0 ID: 1

Read mode : SecureUtilize accurate stream : YesDefeat audio cache : YesMake use of C2 pointers : No

Read offset correction : 6Overread into Lead-In and Lead-Out : NoFill up missing offset samples with silence : YesDelete leading and trailing silent blocks : NoNull samples used in CRC calculations : YesUsed interface : Installed external ASPI interface

Used output format : User Defined EncoderSelected bitrate : 768 kBit/sQuality : HighAdd ID3 tag : NoCommand line compressor : C:\Program Files (x86)\Exact Audio Copy\FLAC\FLAC.EXEAdditional command line options : -6 -V -T "ARTIST=%artist%" -T "TITLE=%title%" -T "ALBUM=%albumtitle%" -T "DATE=%year%" -T "TRACKNUMBER=%tracknr%" -T "GENRE=%genre%" -T "COMMENT=%comment%" -T "BAND=%albuminterpret%" -T "ALBUMARTIST=%albuminterpret%" -T "COMPOSER=%composer%" %haslyrics%--tag-from-file=LYRICS="%lyricsfile%"%haslyrics% -T "DISCNUMBER=%cdnumber%" -T "TOTALDISCS=%totalcds%" -T "TOTALTRACKS=%numtracks%" %hascover%--picture="%coverfile%"%hascover% %source% -o %dest%

TOC of the extracted CD

Track | Start | Length | Start sector | End sector --------------------------------------------------------- 1 | 0:00.00 | 5:14.27 | 0 | 23576 2 | 5:14.27 | 6:03.00 | 23577 | 50801 3 | 11:17.27 | 3:56.58 | 50802 | 68559 4 | 15:14.10 | 6:08.07 | 68560 | 96166 5 | 21:22.17 | 2:20.73 | 96167 | 106739 6 | 23:43.15 | 2:45.45 | 106740 | 119159 7 | 26:28.60 | 3:17.42 | 119160 | 133976 8 | 29:46.27 | 1:21.73 | 133977 | 140124 9 | 31:08.25 | 4:36.12 | 140125 | 160836 10 | 35:44.37 | 3:40.10 | 160837 | 177346 11 | 39:24.47 | 4:11.63 | 177347 | 196234

Range status and errors

Selected range

Filename C:\Users\HP\Music\5.UKRAINIAN MUSIC\Various Artists - School Daze Soundtrack (1988)[DVD Bonus Disc Reissue 2005].wav

Peak level 99.9 % Extraction speed 4.4 X Range quality 100.0 % Test CRC CBC4A266 Copy CRC CBC4A266 Copy OK

No errors occurred

AccurateRip summary

Track 1 not present in databaseTrack 2 not present in databaseTrack 3 not present in databaseTrack 4 not present in databaseTrack 5 not present in databaseTrack 6 not present in databaseTrack 7 not present in databaseTrack 8 not present in databaseTrack 9 not present in databaseTrack 10 not present in databaseTrack 11 not present in database

None of the tracks are present in the AccurateRip database

End of status report

==== Log checksum A5CD044F789F7F2B87B5E7C63594589C43E0569C61525C1FC905882022CC709B ====
Доп. информация: Данный диск был переиздан в оригинальном виде (без обложек и, насколько я понимаю, без ремастеринга) в 2005 году как бонус к ДВД с фильмом(на внешней обложке не указано его наличие, но в звуковом комментарии режиссера естЬ упоминание).
В записи диска,написании песен и аранжировок учавствовали следующие музыканты:Bill Lee(отец Спайка Ли),E.U.,Tisha Campbell,Stevie Wonder,Marcus Miller,Phyllis Hyman,Terence Blanchard,Branford Marsalis...Стили варЬируются:Contemporary Jazz,Musical,Soul,Gospel,Funk,Go-Go,Instrumental,Pop,Reggae,R&B,Showtune


Трекер:  [ 27-Ноя-2014 11:00 ]

  

Скачать .torrent

Размер .torrent файла 21 KB


Размер: 253 MB
Хэш (hash) релиза: f810b70f80c9c1864b458109deb6c5fc765a11ce

Еще никто не оставлял запись к записи скачать торрент Школьные годы чудесные School Daze . Будь первым!

!Обратная связь