Скачать через торрент музыку Элитный отряд Tropa de Elite бесплатно без регистрации torrent

Если у вас наблюдаются проблемы со скриншотами, переходом по ссылками, скачиванием торрентов - проблемы в блокировщике рекламы AdBlock. #хорошегоДня!


Статистика раздачи
Размер:  308 MB   |    Зарегистрирован:  2 года 9 месяцев   |    .torrent скачан:  29 раз   |   
Раздают:  1  
   
Загрузка...
 
Автор Сообщение

Galfimbul

avatar Galfimbul


Элитный отряд / Tropa de Elite / Elite Squad
Жанр: Soundtrack
Композитор: Pedro Bromfman
Год выпуска диска: 2007
Страна-производитель диска: USA

Издатель (лейбл): Milan Records
Номер по каталогу: 399 236-2
Аудиокодек: FLAC (*.flac)
Тип рипа: tracks+.cue

Битрейт аудио: lossless
Продолжительность: 00:48:57
Источник: CD / What.CD
Наличие сканов в содержимом раздачи: нет
Треклист:
01 - MC Junior, MC Leonardo and Bateria da Rocinha - Rap das Armas (Samba School)
02 - Pedro Bromfman - Invasao do Bope
03 - Pedro Bromfman - O Plano
04 - MC Junior, MC Leonardo and Bateria da Rocinha - Nossa Bandeira
05 - Pedro Bromfman - Treinamento pra Guerra
06 - Sangue Da Cidade - Brilhar a Minha Estrela
07 - Pedro Bromfman - Morre Queimado / Nascimento
08 - O Rappa - Lado B Lado A
09 - Barbatuques - Andando Pela Africa
10 - Pedro Bromfman - Tropa de Elite
11 - Pedro Bromfman - Guerra da Carne
12 - Fausto Fawcett and Os Robos Efemeros - Katia Flavia, a Godiva de Iraja
13 - Pedro Bromfman - Rose e Xuxa
14 - Pedro Bromfman - Morte do Neto
15 - Titas - Policia
16 - Pedro Bromfman - Passa Que e Teu
17 - Pedro Bromfman - Matias Sobe o Morro
18 - MC Junior and MC Leonardo - Rap das Armas (Funk)
Exact Audio Copy V1.0 beta 3 from 29. August 2011

EAC extraction logfile from 29. October 2011, 15:01

Various Artists / Tropa de Elite

Used drive : TSSTcorpCDDVDW TS-L633C Adapter: 2 ID: 0

Read mode : SecureUtilize accurate stream : YesDefeat audio cache : YesMake use of C2 pointers : No

Read offset correction : 6Overread into Lead-In and Lead-Out : NoFill up missing offset samples with silence : YesDelete leading and trailing silent blocks : NoNull samples used in CRC calculations : YesUsed interface : Native Win32 interface for Win NT & 2000Gap handling : Appended to previous track

Used output format : User Defined EncoderSelected bitrate : 128 kBit/sQuality : HighAdd ID3 tag : NoCommand line compressor : C:\Program Files (x86)\Exact Audio Copy\Flac\flac.exeAdditional command line options : -8 -V -T "ARTIST=%artist%" -T "TITLE=%title%" -T "ALBUM=%albumtitle%" -T "DATE=%year%" -T "TRACKNUMBER=%tracknr%" -T "GENRE=%genre%" -T "PERFORMER=%albuminterpret%" -T "COMPOSER=%composer%" %haslyrics%--tag-from-file=LYRICS="%lyricsfile%"%haslyrics% -T "ALBUMARTIST=%albumartist%" -T "ALBUM ARTIST=%albumartist%" -T "DISCNUMBER=%cdnumber%" -T "TOTALDISCS=%totalcds%" -T "TOTALTRACKS=%numtracks%" -T "COMMENT=EAC V1.0 beta 2, Secure Mode, Test & Copy, AccurateRip, FLAC -8" %source% -o %dest%

TOC of the extracted CD

Track | Start | Length | Start sector | End sector --------------------------------------------------------- 1 | 0:00.00 | 3:40.04 | 0 | 16503 2 | 3:40.04 | 3:19.33 | 16504 | 31461 3 | 6:59.37 | 0:47.10 | 31462 | 34996 4 | 7:46.47 | 2:49.25 | 34997 | 47696 5 | 10:35.72 | 3:11.13 | 47697 | 62034 6 | 13:47.10 | 3:17.41 | 62035 | 76850 7 | 17:04.51 | 2:12.38 | 76851 | 86788 8 | 19:17.14 | 5:06.66 | 86789 | 109804 9 | 24:24.05 | 4:12.13 | 109805 | 128717 10 | 28:36.18 | 2:36.22 | 128718 | 140439 11 | 31:12.40 | 0:37.31 | 140440 | 143245 12 | 31:49.71 | 4:08.11 | 143246 | 161856 13 | 35:58.07 | 1:34.10 | 161857 | 168916 14 | 37:32.17 | 2:37.28 | 168917 | 180719 15 | 40:09.45 | 2:10.00 | 180720 | 190469 16 | 42:19.45 | 1:50.34 | 190470 | 198753 17 | 44:10.04 | 1:22.73 | 198754 | 204976 18 | 45:33.02 | 3:24.38 | 204977 | 220314

Track 1

Filename G:\EACRIPS\Various Artists - Tropa de Elite (2008) [FLAC]\01. MC Junior, MC Leonardo, and Bateria da Rocinha - Rap das Armas (Samba School).wav

Pre-gap length 0:00:02.00

Peak level 100.0 % Extraction speed 2.1 X Track quality 100.0 % Test CRC 3A5BF2FD Copy CRC 3A5BF2FD Track not present in AccurateRip database Copy OK

Track 2

Filename G:\EACRIPS\Various Artists - Tropa de Elite (2008) [FLAC]\02. Pedro Bromfman - Invasão do Bope.wav

Pre-gap length 0:00:00.53

Peak level 100.0 % Extraction speed 2.3 X Track quality 100.0 % Test CRC 97635BF6 Copy CRC 97635BF6 Track not present in AccurateRip database Copy OK

Track 3

Filename G:\EACRIPS\Various Artists - Tropa de Elite (2008) [FLAC]\03. Pedro Bromfman - O Plano.wav

Pre-gap length 0:00:00.97

Peak level 100.0 % Extraction speed 0.8 X Track quality 99.7 % Test CRC 667E888F Copy CRC 667E888F Track not present in AccurateRip database Copy OK

Track 4

Filename G:\EACRIPS\Various Artists - Tropa de Elite (2008) [FLAC]\04. MC Junior, MC Leonardo, and Bateria da Rocinha - Nossa Bandeira.wav

Pre-gap length 0:00:00.45

Peak level 89.1 % Extraction speed 1.8 X Track quality 99.9 % Test CRC A4C69CFC Copy CRC A4C69CFC Track not present in AccurateRip database Copy OK

Track 5

Filename G:\EACRIPS\Various Artists - Tropa de Elite (2008) [FLAC]\05. Pedro Bromfman - Treinamento pra Guerra.wav

Pre-gap length 0:00:01.14

Peak level 100.0 % Extraction speed 2.6 X Track quality 100.0 % Test CRC 3FC40F70 Copy CRC 3FC40F70 Track not present in AccurateRip database Copy OK

Track 6

Filename G:\EACRIPS\Various Artists - Tropa de Elite (2008) [FLAC]\06. Sangue Da Cidade - Brilhar A Minha Estrela.wav

Pre-gap length 0:00:00.24

Peak level 89.1 % Extraction speed 2.2 X Track quality 99.9 % Test CRC B7D373CB Copy CRC B7D373CB Track not present in AccurateRip database Copy OK

Track 7

Filename G:\EACRIPS\Various Artists - Tropa de Elite (2008) [FLAC]\07. Pedro Bromfman - Morre Queimado , Nascimento.wav

Pre-gap length 0:00:00.42

Peak level 100.0 % Extraction speed 2.7 X Track quality 100.0 % Test CRC 6A94D6ED Copy CRC 6A94D6ED Track not present in AccurateRip database Copy OK

Track 8

Filename G:\EACRIPS\Various Artists - Tropa de Elite (2008) [FLAC]\08. O Rappa - Lado B Lado A.wav

Pre-gap length 0:00:00.28

Peak level 84.1 % Extraction speed 3.2 X Track quality 100.0 % Test CRC B1AC66C7 Copy CRC B1AC66C7 Track not present in AccurateRip database Copy OK

Track 9

Filename G:\EACRIPS\Various Artists - Tropa de Elite (2008) [FLAC]\09. Barbatuques - Andando Pela Africa.wav

Pre-gap length 0:00:00.58

Peak level 100.0 % Extraction speed 3.3 X Track quality 100.0 % Test CRC B24434B8 Copy CRC B24434B8 Track not present in AccurateRip database Copy OK

Track 10

Filename G:\EACRIPS\Various Artists - Tropa de Elite (2008) [FLAC]\10. Pedro Bromfman - Tropa de Elite.wav

Pre-gap length 0:00:00.80

Peak level 82.8 % Extraction speed 3.2 X Track quality 100.0 % Test CRC CA54FC27 Copy CRC CA54FC27 Track not present in AccurateRip database Copy OK

Track 11

Filename G:\EACRIPS\Various Artists - Tropa de Elite (2008) [FLAC]\11. Pedro Bromfman - Guerra da Carne.wav

Pre-gap length 0:00:00.14

Peak level 100.0 % Extraction speed 2.0 X Track quality 100.0 % Test CRC 5475F9BE Copy CRC 5475F9BE Track not present in AccurateRip database Copy OK

Track 12

Filename G:\EACRIPS\Various Artists - Tropa de Elite (2008) [FLAC]\12. Fausto Fawcett & Os Robôs Efêmeros - Kátia Flávia, A Godiva De Irajá.wav

Peak level 89.1 % Extraction speed 3.6 X Track quality 100.0 % Test CRC 3642B973 Copy CRC 3642B973 Track not present in AccurateRip database Copy OK

Track 13

Filename G:\EACRIPS\Various Artists - Tropa de Elite (2008) [FLAC]\13. Pedro Bromfman - Rose e Xuxa.wav

Pre-gap length 0:00:00.10

Peak level 100.0 % Extraction speed 2.9 X Track quality 100.0 % Test CRC 4EC1570F Copy CRC 4EC1570F Track not present in AccurateRip database Copy OK

Track 14

Filename G:\EACRIPS\Various Artists - Tropa de Elite (2008) [FLAC]\14. Pedro Bromfman - Morte do Neto.wav

Pre-gap length 0:00:00.65

Peak level 100.0 % Extraction speed 2.5 X Track quality 99.9 % Test CRC AD268224 Copy CRC AD268224 Track not present in AccurateRip database Copy OK

Track 15

Filename G:\EACRIPS\Various Artists - Tropa de Elite (2008) [FLAC]\15. Titãs - Polícia.wav

Pre-gap length 0:00:00.21

Peak level 89.1 % Extraction speed 3.4 X Track quality 100.0 % Test CRC AF86CBFE Copy CRC AF86CBFE Track not present in AccurateRip database Copy OK

Track 16

Filename G:\EACRIPS\Various Artists - Tropa de Elite (2008) [FLAC]\16. Pedro Bromfman - Passa Que é Teu.wav

Pre-gap length 0:00:00.13

Peak level 100.0 % Extraction speed 3.3 X Track quality 100.0 % Test CRC 2B12C5DC Copy CRC 2B12C5DC Track not present in AccurateRip database Copy OK

Track 17

Filename G:\EACRIPS\Various Artists - Tropa de Elite (2008) [FLAC]\17. Pedro Bromfman - Matias Sobe o Morro.wav

Pre-gap length 0:00:00.65

Peak level 100.0 % Extraction speed 2.0 X Track quality 99.8 % Test CRC 24F8752A Copy CRC 24F8752A Track not present in AccurateRip database Copy OK

Track 18

Filename G:\EACRIPS\Various Artists - Tropa de Elite (2008) [FLAC]\18. MC Junior & MC Leonardo - Rap das Armas (Funk).wav

Pre-gap length 0:00:00.42

Peak level 100.0 % Extraction speed 3.0 X Track quality 99.9 % Test CRC 3CA85FFB Copy CRC 3CA85FFB Track not present in AccurateRip database Copy OK

None of the tracks are present in the AccurateRip database

No errors occurred

End of status report

---- CUETools DB Plugin V2.1.3

[CTDB TOCID: MCWE13lK9z8GHeVtdEVo47ui2hI-] found, Submit result: already submitted[827e72fe] (1/1) Accurately ripped

==== Log checksum 1C72AF654D0CD779E4BC7A3ECC9E58B0DF953AFDBAD8EC7AF3CAB244FA21C712 ====
REM GENRE SoundtrackREM DATE 2008REM DISCID E90B7912REM COMMENT "ExactAudioCopy v1.0b3"CATALOG 0731383637322PERFORMER "Various Artists"TITLE "Tropa de Elite"FILE "Various Artists - Tropa de Elite (2008) [FLAC]\01. MC Junior, MC Leonardo, and Bateria da Rocinha - Rap das Armas (Samba School).wav" WAVE TRACK 01 AUDIO TITLE "Rap das Armas (Samba School)" PERFORMER "MC Junior, MC Leonardo, and Bateria da Rocinha" ISRC BQ\F=0700107 INDEX 01 00:00:00 TRACK 02 AUDIO TITLE "Invasгo do Bope" PERFORMER "Pedro Bromfman" ISRC H1la20800146 INDEX 00 03:39:39FILE "Various Artists - Tropa de Elite (2008) [FLAC]\02. Pedro Bromfman - Invasгo do Bope.wav" WAVE INDEX 01 00:00:00 TRACK 03 AUDIO TITLE "O Plano" PERFORMER "Pedro Bromfman" ISRC H1la20800147 INDEX 00 03:18:35FILE "Various Artists - Tropa de Elite (2008) [FLAC]\03. Pedro Bromfman - O Plano.wav" WAVE INDEX 01 00:00:00 TRACK 04 AUDIO TITLE "Nossa Bandeira" PERFORMER "MC Junior, MC Leonardo, and Bateria da Rocinha" ISRC H1la20800148 INDEX 00 00:46:51FILE "Various Artists - Tropa de Elite (2008) [FLAC]\04. MC Junior, MC Leonardo, and Bateria da Rocinha - Nossa Bandeira.wav" WAVE INDEX 01 00:00:00 TRACK 05 AUDIO TITLE "Treinamento pra Guerra" PERFORMER "Pedro Bromfman" ISRC H1la20800149 INDEX 00 02:48:14FILE "Various Artists - Tropa de Elite (2008) [FLAC]\05. Pedro Bromfman - Treinamento pra Guerra.wav" WAVE INDEX 01 00:00:00 TRACK 06 AUDIO TITLE "Brilhar A Minha Estrela" PERFORMER "Sangue Da Cidade" ISRC BQgM<9701879 INDEX 00 03:10:70FILE "Various Artists - Tropa de Elite (2008) [FLAC]\06. Sangue Da Cidade - Brilhar A Minha Estrela.wav" WAVE INDEX 01 00:00:00 TRACK 07 AUDIO TITLE "Morre Queimado / Nascimento" PERFORMER "Pedro Bromfman" ISRC H1la20800150 INDEX 00 03:17:09FILE "Various Artists - Tropa de Elite (2008) [FLAC]\07. Pedro Bromfman - Morre Queimado , Nascimento.wav" WAVE INDEX 01 00:00:00 TRACK 08 AUDIO TITLE "Lado B Lado A" PERFORMER "O Rappa" ISRC BQgM<0101290 INDEX 00 02:12:17FILE "Various Artists - Tropa de Elite (2008) [FLAC]\08. O Rappa - Lado B Lado A.wav" WAVE INDEX 01 00:00:00 TRACK 09 AUDIO TITLE "Andando Pela Africa" PERFORMER "Barbatuques" ISRC H1la20800151 INDEX 00 05:06:22FILE "Various Artists - Tropa de Elite (2008) [FLAC]\09. Barbatuques - Andando Pela Africa.wav" WAVE INDEX 01 00:00:00 TRACK 10 AUDIO TITLE "Tropa de Elite" PERFORMER "Pedro Bromfman" ISRC H1la20800152 INDEX 00 04:11:28FILE "Various Artists - Tropa de Elite (2008) [FLAC]\10. Pedro Bromfman - Tropa de Elite.wav" WAVE INDEX 01 00:00:00 TRACK 11 AUDIO TITLE "Guerra da Carne" PERFORMER "Pedro Bromfman" ISRC H1la20800153 INDEX 00 02:36:11FILE "Various Artists - Tropa de Elite (2008) [FLAC]\11. Pedro Bromfman - Guerra da Carne.wav" WAVE INDEX 01 00:00:00FILE "Various Artists - Tropa de Elite (2008) [FLAC]\12. Fausto Fawcett & Os Robфs Efкmeros - Kбtia Flбvia, A Godiva De Irajб.wav" WAVE TRACK 12 AUDIO TITLE "Kбtia Flбvia, A Godiva De Irajб" PERFORMER "Fausto Fawcett & Os Robфs Efкmeros" ISRC BQgM<9705418 INDEX 01 00:00:00 TRACK 13 AUDIO TITLE "Rose e Xuxa" PERFORMER "Pedro Bromfman" ISRC H1la20800154 INDEX 00 04:08:03FILE "Various Artists - Tropa de Elite (2008) [FLAC]\13. Pedro Bromfman - Rose e Xuxa.wav" WAVE INDEX 01 00:00:00 TRACK 14 AUDIO TITLE "Morte do Neto" PERFORMER "Pedro Bromfman" ISRC H1la20800155 INDEX 00 01:33:36FILE "Various Artists - Tropa de Elite (2008) [FLAC]\14. Pedro Bromfman - Morte do Neto.wav" WAVE INDEX 01 00:00:00 TRACK 15 AUDIO TITLE "Polнcia" PERFORMER "Titгs" ISRC H1la20800156 INDEX 00 02:37:12FILE "Various Artists - Tropa de Elite (2008) [FLAC]\15. Titгs - Polнcia.wav" WAVE INDEX 01 00:00:00 TRACK 16 AUDIO TITLE "Passa Que й Teu" PERFORMER "Pedro Bromfman" ISRC H1la20800157 INDEX 00 02:09:65FILE "Various Artists - Tropa de Elite (2008) [FLAC]\16. Pedro Bromfman - Passa Que й Teu.wav" WAVE INDEX 01 00:00:00 TRACK 17 AUDIO TITLE "Matias Sobe o Morro" PERFORMER "Pedro Bromfman" ISRC H1la20800158 INDEX 00 01:49:60FILE "Various Artists - Tropa de Elite (2008) [FLAC]\17. Pedro Bromfman - Matias Sobe o Morro.wav" WAVE INDEX 01 00:00:00 TRACK 18 AUDIO TITLE "Rap das Armas (Funk)" PERFORMER "MC Junior & MC Leonardo" ISRC H1la20800159 INDEX 00 01:22:41FILE "Various Artists - Tropa de Elite (2008) [FLAC]\18. MC Junior & MC Leonardo - Rap das Armas (Funk).wav" WAVE INDEX 01 00:00:00
-----------------------

DON'T MODIFY THIS FILE

-----------------------

PERFORMER: auCDtect Task Manager, ver. 1.6.0 RC1 build 1.6.0.1Copyright (c) 2008-2010 y-soft. All rights reservedhttp://y-soft.org

ANALYZER: auCDtect: CD records authenticity detector, version 0.8.2Copyright (c) 2004 Oleg Berngardt. All rights reserved.Copyright (c) 2004 Alexander Djourik. All rights reserved.

FILE: 18. MC Junior & MC Leonardo - Rap das Armas (Funk).flac Size: 23034102 Hash: B7BAA80695530F5ADAEE437170E48BD2 Accuracy: -m0 Conclusion: CDDA 100% Signature: 09023EFAB8FBA25E4B6D0C4D3A309CF616BDB83DFILE: 17. Pedro Bromfman - Matias Sobe o Morro.flac Size: 7292284 Hash: FFEA7854558C2C21F564F2D8902A8C53 Accuracy: -m0 Conclusion: CDDA 100% Signature: A5FB1CEAED72489527C51F22E96EB72EB209E573FILE: 16. Pedro Bromfman - Passa Que é Teu.flac Size: 10396396 Hash: 0ABED2D2F2520FB77903CED1540B4745 Accuracy: -m0 Conclusion: CDDA 100% Signature: 9EB6598CA6546F07E8B25FB8119369FA20062C17FILE: 15. Titãs - Polícia.flac Size: 16896787 Hash: DB9028DACF2F5657A859D0D1808EA8C6 Accuracy: -m0 Conclusion: CDDA 100% Signature: 22DBAD27E58A7C0B052271382150A8E53520D295FILE: 14. Pedro Bromfman - Morte do Neto.flac Size: 12345005 Hash: 08D7BC011D9582BD82BEBF6D6F4BD12A Accuracy: -m0 Conclusion: CDDA 100% Signature: 329A854F7AD7647DE3324EF553EB8FB3C244D733FILE: 13. Pedro Bromfman - Rose e Xuxa.flac Size: 8496158 Hash: C86F1E279B63F1206D1878BA6544B6E6 Accuracy: -m0 Conclusion: CDDA 100% Signature: DCC8CE2A77ED08420C1924D7AB40007A09E587A2FILE: 12. Fausto Fawcett & Os Robôs Efêmeros - Kátia Flávia, A Godiva De Irajá.flac Size: 30518251 Hash: E9D669A47F72C6542CCF2481E91C5586 Accuracy: -m0 Conclusion: ??? Signature: 8C8A790E36DCC7F7ED3AD1D85A2005969F7D57E0FILE: 11. Pedro Bromfman - Guerra da Carne.flac Size: 3845617 Hash: A739982E6467F5E8F88D02D3D74CA1D6 Accuracy: -m0 Conclusion: CDDA 100% Signature: 49913B00F720D69686B78BED427C0E3762F2D5D6FILE: 10. Pedro Bromfman - Tropa de Elite.flac Size: 12717095 Hash: 7B98937424030652E1775B564CEEC15B Accuracy: -m0 Conclusion: CDDA 100% Signature: 61A46AF7EBEBF8B6BEBA1A0B00ECE8E89614DB56FILE: 09. Barbatuques - Andando Pela Africa.flac Size: 29170738 Hash: E186E227AEF297F1F11F8AA923915F9C Accuracy: -m0 Conclusion: CDDA 100% Signature: FF98A6A26FAB925C7AB4188C635F44700F574D61FILE: 08. O Rappa - Lado B Lado A.flac Size: 40397624 Hash: AB038B686DC2D804203FAF854EC57A2E Accuracy: -m0 Conclusion: CDDA 99% Signature: 8F12E53483D69C2A71AD1A75A3342A8EADAF9851FILE: 07. Pedro Bromfman - Morre Queimado , Nascimento.flac Size: 11256735 Hash: 0FA6D8B8059759D2BCBAC4A3D789045B Accuracy: -m0 Conclusion: CDDA 100% Signature: 40211D9D71DA153309EB5CCF15DAFCC1E143D10FFILE: 06. Sangue Da Cidade - Brilhar A Minha Estrela.flac Size: 26477583 Hash: 74C132C3F1F7A2AA7E55309A1C4AB4D8 Accuracy: -m0 Conclusion: CDDA 100% Signature: 9C7CC0EA00E15320AD20B1ECDDFBBAC15E01E714FILE: 05. Pedro Bromfman - Treinamento pra Guerra.flac Size: 18164710 Hash: 950537F2A4DF5EF48660B9955EF4272A Accuracy: -m0 Conclusion: CDDA 99% Signature: 3E11D4DDA3BEF5CC7E758CAB07837893940BCA7EFILE: 04. MC Junior, MC Leonardo, and Bateria da Rocinha - Nossa Bandeira.flac Size: 21685404 Hash: B77455CF688D285ADDA88A50475F47C6 Accuracy: -m0 Conclusion: CDDA 100% Signature: A3836523FEE2ED05C85829ED88E24C95CC617BE5FILE: 03. Pedro Bromfman - O Plano.flac Size: 5337809 Hash: 47C80B2E050DDE594C5A30B1C14B538E Accuracy: -m0 Conclusion: CDDA 100% Signature: 2CB6008172F5BABD2E253EACB375F1C945127827FILE: 02. Pedro Bromfman - Invasão do Bope.flac Size: 17078174 Hash: 462778FE9D494E2F28864ADB6B2D64D6 Accuracy: -m0 Conclusion: CDDA 100% Signature: 3BE9CB07D675233F60F3ECB950E95BBA2AD0B1DCFILE: 01. MC Junior, MC Leonardo, and Bateria da Rocinha - Rap das Armas (Samba School).flac Size: 27629118 Hash: CC707BCCD08DE93E1E371E95FA9D6B37 Accuracy: -m0 Conclusion: CDDA 100% Signature: 5537E59EF07B906CD14E74CCBBEFDF2C0D6C2F1C
Score: 100 (out of 100)
Log entry is fine
обложка альтернативная. сделал Jasonjhn8


Трекер:  [ 27-Ноя-2014 11:00 ]

  

Скачать .torrent

Размер .torrent файла 14 KB


Размер: 308 MB
Хэш (hash) релиза: 68bf405a6fe7440f383f5b89bd98d3c036cc2d61

Торренты, похожие на Элитный отряд Tropa de Elite скачать торрент

Форум Название Автор Размер S L Добавлен
Саундтреки к фильмам и мультфильмам (lossless) ·· (Soundtrack) Tropa De Elite 2: O Inimigo Agora E Outro (Elite Squad 2) / Элитный отряд: Враг среди нас (by Pedro Bromfmam & VA) - 2010 [FLAC (tracks+.cue) lossless] Galfimbul 339592418324 MB 0 0 1292270432

23:00

13-Дек-10

Еще никто не оставлял запись к записи скачать торрент Элитный отряд Tropa de Elite . Будь первым!

!Обратная связь