Скачать через торрент Ярость Бахамута: Истоки Ярость Бахамута: Гeнезис бесплатно Аниме Все серии на русском torrent

Если у вас наблюдаются проблемы со скриншотами, переходом по ссылками, скачиванием торрентов - проблемы в блокировщике рекламы AdBlock. #хорошегоДня!


Статистика раздачи
Размер:  2.92 GB   |    Зарегистрирован:  2 года 9 месяцев   |    .torrent скачан:  31 раз   |   
Раздают:  1  
   
Загрузка...
 
Автор Сообщение

Galfimbul

avatar Galfimbul


Ярость Бахамута: Гeнезис / Ярость Бахамута: Происхождение / Shingeki no Bahamut: Genesis
Страна: Япония
Год выпуска: 2014 г.
Жанр: приключения
Тип: TV
Продолжительность: >12 эп. по 25 мин
Режиссер: Сато Кэйити
Студия: MAPPA
Описание: Мистарсия - магический мир, где люди, боги и демоны пытаются сосуществовать вместе. В прошлом серебрянокрылый Бахамут пригрозил, что уничтожит мир, но в ответ ему люди, боги и демоны прекратили свои разногласия, дабы бороться вместе за выживание, спасти свой мир и запечатать угрозу. Ключ к этой силе был разделен на две части. Одна из них досталась богам, а другая демонам, дабы Бахамут никогда снова не обрел свободу. Но однажды, спустя тысячи лет, в эпоху мира и процветания, одна девушка украдет половину ключа у богов и мир снова будет в опасности!
Качество: HDTVRip
Тип релиза: Без хардсаба
Формат видео: mp4
Релиз/Автор рипа: Ohys-Raws
Видео: H264, 2 085 Kbps, 1280x720, 23.976 fps, 8 bit
Аудио: JAP, AAC, 214 kbps, 48000 Hz, 2ch
Субтитры: ASS, внешние; Язык субтитров русский; Перевод команды: Teisoku & Timecraft
<div style="margin-left: 2em" class="post-ul">Перевод: Zottig Редактура: AleX_MytH</div>
ОбщееПолное имя : B:\Download\Torrent\[Ohys-Raws] Shingeki no Bahamut Genesis\[Ohys-Raws] Shingeki no Bahamut Genesis - 01 (SUN 1280x720 x264 AAC).mp4Формат : MPEG-4Профиль формата : Base MediaИдентификатор кодека : isomРазмер файла : 395 МбайтПродолжительность : 24 м.Режим общего битрейта : ПеременныйОбщий поток : 2302 Кбит/секДата кодирования : UTC 2014-10-06 15:43:24Дата пометки : UTC 2014-10-06 15:43:24

ВидеоИдентификатор : 1Формат : AVCФормат/Информация : Advanced Video CodecПрофиль формата : Main@L4.1Параметр CABAC формата : ДаПараметр ReFrames формата : 4 кадраИдентификатор кодека : avc1Идентификатор кодека/Информация : Advanced Video CodingПродолжительность : 23 м.Битрейт : 2085 Кбит/секМаксимальный битрейт : 8862 Кбит/секШирина : 1280 пикселейВысота : 720 пикселейСоотношение сторон : 16:9Режим частоты кадров : ПостоянныйЧастота кадров : 23,976 кадра/секЦветовое пространство : YUVСубдискретизация насыщенности : 4:2:0Битовая глубина : 8 битТип развёртки : ПрогрессивнаяБит/(Пиксели*Кадры) : 0.094Размер потока : 358 Мбайт (91%)Библиотека кодирования : x264 core 142 r2479 dd79a61Настройки программы : cabac=1 / ref=3 / deblock=1:0:0 / analyse=0x1:0x111 / me=hex / subme=7 / psy=1 / psy_rd=1.00:0.00 / mixed_ref=1 / me_range=16 / chroma_me=1 / trellis=1 / 8x8dct=0 / cqm=0 / deadzone=21,11 / fast_pskip=1 / chroma_qp_offset=-2 / threads=12 / lookahead_threads=2 / sliced_threads=0 / nr=0 / decimate=1 / interlaced=0 / bluray_compat=0 / constrained_intra=0 / bframes=16 / b_pyramid=2 / b_adapt=1 / b_bias=0 / direct=1 / weightb=1 / open_gop=0 / weightp=2 / keyint=240 / keyint_min=1 / scenecut=40 / intra_refresh=0 / rc_lookahead=40 / rc=crf / mbtree=1 / crf=20.0 / qcomp=0.60 / qpmin=0 / qpmax=69 / qpstep=4 / ip_ratio=1.40 / aq=1:1.00Дата кодирования : UTC 2014-10-06 15:43:09Дата пометки : UTC 2014-10-06 15:43:25Основные цвета : BT.709Характеристики трансфера : BT.709Коэффициенты матрицы : BT.709

АудиоИдентификатор : 2Формат : AACФормат/Информация : Advanced Audio CodecПрофиль формата : LCИдентификатор кодека : 40Продолжительность : 24 м.Вид битрейта : ПеременныйБитрейт : 214 Кбит/секМаксимальный битрейт : 256 Кбит/секКаналы : 2 каналаРасположение каналов : Front: L RЧастота : 48,0 КГцМетод сжатия : С потерямиРазмер потока : 36,7 Мбайт (9%)Язык : JapaneseДата кодирования : UTC 2014-10-06 15:31:41Дата пометки : UTC 2014-10-06 15:43:25
01 - Схватка в Уайеттэрпе.
02 - Побег из Ливиана.
03 - Туман Нэбельвилла.
04 - Воссоединение в Есменпорте.
05 - Спасение в долине Мечей.
06 - Анате, часть 1: легендарный святой
07 - Анате, часть 2: буря свирепствует


Трекер:  [ 25-Ноя-2014 20:30 ]

  

Скачать .torrent

Размер .torrent файла 16 KB


Размер: 2.92 GB
Хэш (hash) релиза: 4b2d9888dc9a2e5fdafbba12522d77926e781010
Подписка на обновления:

Торренты, похожие на Ярость Бахамута: Истоки Ярость Бахамута: Гeнезис скачать торрент

Форум Название Автор Размер S L Добавлен
Аниме | Rips ·· Ярость Бахамута - Истоки / Shingeki no Bahamut - Genesis / Ярость Бахамута: Гeнезис / Ярость Бахамута: Происхождение [TV] [12 из 12] [Без хардсаба] [RUS(int), JAP, SUB] [2014 г., приключения, фэнтези, HDTVRip] [720p] Galfimbul 77800891737.25 GB 0 0 1420123536

17:45

1-Янв-15

Аниме | Rips ·· Ярость Бахамута - Истоки / Shingeki no Bahamut - Genesis / Ярость Бахамута: Гeнезис / Ярость Бахамута: Происхождение [TV] [11 из 12] [Без хардсаба] [RUS(int), JAP, SUB] [2014 г., приключения, фэнтези, HDTVRip] [720p] Galfimbul 71485041846.66 GB 0 0 1419453693

23:41

24-Дек-14

Аниме | Rips ·· Ярость Бахамута - Истоки / Shingeki no Bahamut - Genesis / Ярость Бахамута: Гeнезис / Ярость Бахамута: Происхождение [TV] [9 из 12] [Без хардсаба] [RUS(int), JAP, SUB] [2014 г., приключения, фэнтези, HDTVRip] [720p] Galfimbul 57007751005.31 GB 0 0 1418490538

20:08

13-Дек-14

Аниме | Rips ·· Ярость Бахамута - Истоки / Shingeki no Bahamut - Genesis / Ярость Бахамута: Гeнезис / Ярость Бахамута: Происхождение [TV] [8 из 12] [Без хардсаба] [RUS(int), JAP, SUB] [2014 г., приключения, фэнтези, HDTVRip] [720p] Galfimbul 51203814464.77 GB 0 0 1417716455

21:07

4-Дек-14

Аниме | Rips ·· Ярость Бахамута - Истоки / Shingeki no Bahamut - Genesis / Ярость Бахамута: Гeнезис / Ярость Бахамута: Происхождение [TV] [6 из 12] [Без хардсаба] [RUS(int), JAP, SUB] [2014 г., приключения, фэнтези, HDTVRip] [720p] Galfimbul 34114165603.18 GB 0 0 1417381840

00:10

1-Дек-14

Аниме | Rips ·· Ярость Бахамута - Истоки / Shingeki no Bahamut - Genesis / Ярость Бахамута: Гeнезис / Ярость Бахамута: Происхождение [TV] [01-03 из 12] [Без хардсаба] [RUS(int), JAP, SUB] [2014 г., приключения, фэнтези, HDTVRip] [720p] Galfimbul 16321551511.52 GB 0 0 1415556346

21:05

9-Ноя-14

Аниме | HD Rips ·· Ярость Бахамута: Истоки / Ярость Бахамута: Гeнезис / Shingeki no Bahamut: Genesis [TV] [12 из 12] [без хардсаба] [JAP+SUB] [2014 г., приключения, HDTVRip] [720p] Galfimbul 56896364945.3 GB 0 0 1419941523

15:12

30-Дек-14

Аниме | HD Rips ·· Ярость Бахамута: Истоки / Ярость Бахамута: Гeнезис / Shingeki no Bahamut: Genesis [TV] [11 из 12] [без хардсаба] [JAP+SUB] [2014 г., приключения, HDTVRip] [720p] Galfimbul 51801462634.82 GB 0 0 1419360283

21:44

23-Дек-14

Аниме | HD Rips ·· Ярость Бахамута: Истоки / Ярость Бахамута: Гeнезис / Shingeki no Bahamut: Genesis [TV] [10 из 12] [без хардсаба] [JAP+SUB] [2014 г., приключения, HDTVRip] [720p] Galfimbul 45483791264.24 GB 0 0 1418758749

22:39

16-Дек-14

Аниме | HD Rips ·· Ярость Бахамута: Истоки / Ярость Бахамута: Гeнезис / Shingeki no Bahamut: Genesis [TV] [9 из 12] [без хардсаба] [JAP+SUB] [2014 г., приключения, HDTVRip] [720p] Galfimbul 40154088923.74 GB 0 0 1418152009

22:06

9-Дек-14

Аниме | HD Rips ·· Ярость Бахамута: Истоки / Ярость Бахамута: Гeнезис / Shingeki no Bahamut: Genesis [TV] [8 из 12] [без хардсаба] [JAP+SUB] [2014 г., приключения, HDTVRip] [720p] Galfimbul 35784855713.33 GB 0 0 1417583152

08:05

3-Дек-14

Аниме | HD Rips ·· Ярость Бахамута: Истоки / Ярость Бахамута: Гeнезис / Shingeki no Bahamut: Genesis [TV] [8 из 12] [без хардсаба] [JAP+SUB] [2014 г., приключения, HDTVRip] [720p] Galfimbul 35784855713.33 GB 0 0 1417539975

20:06

2-Дек-14

Аниме | HD Rips ·· Ярость Бахамута: Истоки / Ярость Бахамута: Гeнезис / Shingeki no Bahamut: Genesis [TV] [6 из >12] [без хардсаба] [JAP+SUB] [2014 г., приключения, HDTVRip] [720p] Galfimbul 27077508592.52 GB 0 0 1415759873

05:37

12-Ноя-14

Аниме | HD Rips ·· Ярость Бахамута: Истоки / Ярость Бахамута: Гeнезис / Shingeki no Bahamut: Genesis [TV] [5 из >12] [без хардсаба] [JAP+SUB] [2014 г., приключения, HDTVRip] [720p] Galfimbul 22909799132.13 GB 0 0 1415216141

22:35

5-Ноя-14

Аниме | HD Rips ·· Ярость Бахамута: Истоки / Ярость Бахамута: Гeнезис / Shingeki no Bahamut: Genesis [TV] [4 из >12] [без хардсаба] [JAP+SUB] [2014 г., приключения, HDTVRip] [720p] Galfimbul 17622926391.64 GB 0 0 1414523326

22:08

28-Окт-14

Аниме | HD Rips ·· Ярость Бахамута: Истоки / Ярость Бахамута: Гeнезис / Shingeki no Bahamut: Genesis [TV] [3 из >12] [без хардсаба] [JAP+SUB] [2014 г., приключения, HDTVRip] [720p] Galfimbul 13090079701.22 GB 0 0 1413920059

22:34

21-Окт-14

Аниме | HD Rips ·· Ярость Бахамута: Истоки / Ярость Бахамута: Гeнезис / Shingeki no Bahamut: Genesis [TV] [2 из >12] [без хардсаба] [JAP+SUB] [2014 г., приключения, HDTVRip] [720p] Galfimbul 871895001832 MB 0 0 1413301213

18:40

14-Окт-14

Еще никто не оставлял запись к записи скачать торрент Ярость Бахамута: Истоки Ярость Бахамута: Гeнезис . Будь первым!

!Обратная связь