Скачать порно через торрент She Loves To Fuck Она любит трахаться UnionPeer.org бесплатно онлайн HD качество

Скачать новое порно 2015, 2014 новинки через торрент UnionPeer.org

Порно торрент бесплатно ЮнионПир.орг

Если у вас наблюдаются проблемы со скриншотами, переходом по ссылками, скачиванием торрентов - проблемы в блокировщике рекламы AdBlock. #хорошегоДня!


Статистика раздачи
Размер:  1.17 GB   |    Зарегистрирован:  2 года 9 месяцев   |    .torrent скачан:  144 раза   |   
Раздают:  1  
   
Загрузка...
 
Автор Сообщение

Galfimbul

avatar Galfimbul


She Loves To Fuck / Она любит трахаться

Год производства: 2014 г.
Страна: США
Жанр: Anal, Oral, Straight, Hardcore, Blowjob, Cumshot, Titsjob.
Продолжительность: 01:42:07
Язык: Английский
Студия: Pink Visual
В ролях: Barra Brass, Brad Thunders, Christian, Dylan Ryder, Jazmine Leih, Joe Friday, Kyky, Steve Q

Описание: Эти шлюхи думают лишь об одном - когда же их снова будут трахать. Им траха всегда недостаточно, они всё время о нём мечтают.

Качество видео: DVDRip
Формат видео: MP4
Видео кодек: H.264/AVC
Аудио кодек: AAC
Видео: H264 720x402 ~1515 Kbps 29.97 fps 0.175 bit/pixel
Аудио: AAC 48000Hz 2ch 122 kbps
E:\Video\stream\She Loves to Fuck\She.Loves.to.Fuck.2014.DVDRip.mp4
General
Complete name : E:\Video\stream\She Loves to Fuck\She.Loves.to.Fuck.2014.DVDRip.mp4
Format : MPEG-4
Format profile : Base Media
Codec ID : isom
File size : 1.17 GiB
Duration : 1h 42mn
Overall bit rate mode : Variable
Overall bit rate : 1 642 Kbps
Encoded date : UTC 2014-10-03 11:40:07
Tagged date : UTC 2014-10-03 11:40:07
Video #1
ID : 1
Format : AVC
Format/Info : Advanced Video Codec
Format profile : High@L3.1
Format settings, CABAC : Yes
Format settings, ReFrames : 5 frames
Codec ID : avc1
Codec ID/Info : Advanced Video Coding
Duration : 1h 42mn
Bit rate : 1 515 Kbps
Maximum bit rate : 4 483 Kbps
Width : 720 pixels
Height : 402 pixels
Display aspect ratio : 16:9
Frame rate mode : Constant
Frame rate : 29.970 fps
Color space : YUV
Chroma subsampling : 4:2:0
Bit depth : 8 bits
Scan type : Progressive
Bits/(Pixel*Frame) : 0.175
Stream size : 1.08 GiB (92%)
Writing library : x264 core 142 r2479 dd79a61
Encoding settings : cabac=1 / ref=5 / deblock=1:0:0 / analyse=0x3:0x113 / me=umh / subme=8 / psy=1 / psy_rd=1.00:0.00 / mixed_ref=1 / me_range=16 / chroma_me=1 / trellis=1 / 8x8dct=1 / cqm=0 / deadzone=21,11 / fast_pskip=0 / chroma_qp_offset=-2 / threads=3 / lookahead_threads=1 / sliced_threads=0 / nr=0 / decimate=1 / interlaced=0 / bluray_compat=0 / constrained_intra=0 / bframes=3 / b_pyramid=2 / b_adapt=2 / b_bias=0 / direct=3 / weightb=1 / open_gop=0 / weightp=2 / keyint=300 / keyint_min=29 / scenecut=40 / intra_refresh=0 / rc_lookahead=50 / rc=crf / mbtree=1 / crf=19.0 / qcomp=0.60 / qpmin=0 / qpmax=69 / qpstep=4 / ip_ratio=1.40 / aq=1:1.00
Encoded date : UTC 2014-10-03 11:40:07
Tagged date : UTC 2014-10-03 11:40:23
Audio #2
ID : 2
Format : AAC
Format/Info : Advanced Audio Codec
Format profile : LC
Codec ID : 40
Duration : 1h 42mn
Bit rate mode : Variable
Bit rate : 122 Kbps
Maximum bit rate : 169 Kbps
Channel(s) : 2 channels
Channel positions : Front: L R
Sampling rate : 48.0 KHz
Compression mode : Lossy
Stream size : 89.5 MiB (7%)
Encoded date : UTC 2014-10-03 09:19:26
Tagged date : UTC 2014-10-03 11:40:23


Трекер:  [ 17-Ноя-2014 13:00 ]

  

Скачать .torrent

Размер .torrent файла 12 KB


Размер: 1.17 GB
Хэш (hash) релиза: 224bf4d8fb67d9c2c0219d06cf46f46d11ecc511

Еще никто не оставлял запись к записи скачать торрент She Loves To Fuck Она любит трахаться . Будь первым!

!Обратная связь