Скачать через торрент Перепутье Z-Kai: Cross Road бесплатно Аниме Все серии на русском torrent

Если у вас наблюдаются проблемы со скриншотами, переходом по ссылками, скачиванием торрентов - проблемы в блокировщике рекламы AdBlock. #хорошегоДня!


Статистика раздачи
Размер:  50 MB   |    Зарегистрирован:  2 года 10 месяцев   |    .torrent скачан:  37 раз   |   
Раздают:  1  
   
Загрузка...
 
Автор Сообщение

Galfimbul

avatar Galfimbul


Перепутье / Z-Kai: Cross Road / クロスロードСтрана: Япония

Премьера: 25.02.2014

Жанр: повседневность, школа

Тип/Продолжительность: ONA (1 эп.), 2 мин.

Режиссёр: Синкай Макото

Студии: и
Субтитры:
<ol class="post-ul">
русские, софтсаб, внешним файлом от Shift & Timecraft
перевод: Evafan; редактура: AleX_MytH; оформление: matoi-kun

английские, софтсаб, в контейнере
</ol>
Озвучка:
<ol class="post-ul">
двухголосая (жен./муж.), внешним файлом от Trina_D & JAM (AniDub)
двухголосая (муж./жен.), внешним файлом от Mistake & Kira Ksyll (OpenDub)
двухголосая (муж./жен.), внешним файлом от Erinant & Kashi (AniMedia)
двухголосая (муж./жен.), внешним файлом от FaSt & Milirina
</ol>
Описание:
Двухминутная музыкальная зарисовка Cross Road снята режиссёром Макото Синкаем по заказу компании Z-Kai, которая занимается подготовкой абитуриентов в японские вузы. Герои фильма — старшеклассница Михо, живущая на отдалённом острове, где не действуют очные подготовительные курсы, и её ровесник Сёта — он, хоть и житель мегаполиса, после школьных уроков подрабатывает допоздна и на традиционные курсы просто не успевает. Для обоих дистанционные занятия по программе Z-Kai стали единственным способом серьёзно подготовиться к вступительным экзаменам в университет.
Информационные ссылки: World Art || AniDB || MAL
Качество: WEBRip | Тип видео: Без хардсаба | Формат: MP4

Видео: 1920x1080, 24.000 f/s, H.264, 8 bits, 2 712 Kb/s

Аудио JAP: 44.1 KHz, AAC, 2 channels, 126 Kb/s
Аудио RUS 1-3: 48.0 KHz, AAC, 2 channels, 192 Kb/s
Аудио RUS 4: 44.1 KHz, AAC, 2 channels, 128 Kb/s
Общее
Полное имя                       : D:\[Flash-Ost]\Anime\Перепутье [Cross Road]\CROSS ROAD ONA (YT 1920x1080 x264 AAC).mp4
Формат                           : MPEG-4
Профиль формата                  : Base Media
Идентификатор кодека             : isom
Размер файла                     : 40,4 Мбайт
Продолжительность                : 1 м. 59 с.
Общий поток                      : 2842 Кбит/сек
Программа кодирования            : Lavf55.12.100

Видео
Идентификатор                    : 1
Формат                           : AVC
Формат/Информация                : Advanced Video Codec
Профиль формата                  : High@L4.0
Параметр CABAC формата           : Да
Параметр ReFrames формата        : 2 кадры
Параметры GOP формата            : M=3, N=12
Идентификатор кодека             : avc1
Идентификатор кодека/Информация  : Advanced Video Coding
Продолжительность                : 1 м. 59 с.
Вид битрейта                     : Переменный
Битрейт                          : 2712 Кбит/сек
Ширина                           : 1920 пикс.
Высота                           : 1080 пикс.
Соотношение сторон               : 16:9
Режим частоты кадров             : Переменный
Частота кадров                   : 24,000 кадр/сек
Минимальная частота кадров       : 24,000 кадр/сек
Максимальная частота кадров      : 24,390 кадр/сек
Цветовое пространство            : YUV
Подвыборка цветности             : 4:2:0
Битовая глубина                  : 8 бит
Тип развёртки                    : Прогрессивная
Бит/(Пиксели*Кадры)              : 0.054
Размер потока                    : 38,5 Мбайт (95%)

Аудио
Идентификатор                    : 2
Формат                           : AAC
Формат/Информация                : Advanced Audio Codec
Профиль формата                  : LC
Идентификатор кодека             : 40
Продолжительность                : 1 м. 59 с.
Вид битрейта                     : Постоянный
Битрейт                          : 126 Кбит/сек
Канал(ы)                         : 2 канала(ов)
Расположение каналов             : Front: L R
Частота                          : 44,1 КГц
Метод сжатия                     : С потерями
Размер потока                    : 1,78 Мбайт (4%)

Текст
Идентификатор                    : 3
Формат                           : Timed text
Режим смешивания                 : sbtl
Идентификатор кодека             : tx3g
Продолжительность                : 1 м. 55 с.
Вид битрейта                     : Переменный
Битрейт                          : 70 бит/сек
Размер потока                    : 1006 байт (0%)
Язык                             : English

От [url=...4679648]этой[/url] - 1080p, наличие озвучки.


Трекер:  [ 08-Ноя-2014 22:00 ]

  

Скачать .torrent

Размер .torrent файла 16 KB


Размер: 50 MB
Хэш (hash) релиза: 6e9e1a05c67ddd7a449c84c520236127436926be
Подписка на обновления:

Еще никто не оставлял запись к записи скачать торрент Перепутье Z-Kai: Cross Road . Будь первым!

!Обратная связь