Скачать через торрент Лазурный Гримуар: Другие Воспоминания BlazBlue: Alter Memory бесплатно Аниме Все серии на русском torrent

Если у вас наблюдаются проблемы со скриншотами, переходом по ссылками, скачиванием торрентов - проблемы в блокировщике рекламы AdBlock. #хорошегоДня!


Статистика раздачи
Размер:  5.33 GB   |    Зарегистрирован:  2 года 10 месяцев   |    .torrent скачан:  37 раз   |   
Раздают:  1  
   
Загрузка...
 
Автор Сообщение

Galfimbul

avatar Galfimbul



Год выпуска: 2014
Страна: Япония
Жанр: фэнтези
Продолжительность: ТВ, 12 эп. по 25 мин.
Выпуск: c 09.10.2013 по 25.12.2013
Перевод:
<ol class="post-ul">
русские субтитры от Faktoreal & Nesitach & Stan WarHammer (полные/вспомогательные)
</ol>
Режиссер: Татибана Хидэки
Студия: Project No.9
Описание:
Когда-то Шесть героев победили Черного Зверя – врага всего сущего – создав при этом Искусство, уникальный сплав науки и магии. Изучением и развитием Искусства занялась Новая Универсальная Библиотека, вскоре развившаяся в мировое правительство. Однако герои, отошедшие в тень, постепенно поняли, что НУБ превратилась из защитника человечества в его тюремщика. Высшие иерархи, желая навсегда обеспечить свою власть, смогли замкнуть мир в петлю времени и теперь охотятся за теми, кто якобы «угрожает стабильности». Повторение пройденного давно перекроило людскую память, большинство приспособилось, и лишь лидеры сил Света и Тьмы понимают, что дальше так жить нельзя!

Чтобы выполнить веление судьбы, герой Дзюбэй воспитал ученика Рагну, а принцесса вампиров Рэйчел Алукард вручила парню Голубую Вспышку – величайшее магическое оружие. Но герой Тэруми, предавшийся Хаосу, сумел совратить брата Рагны и убить сестру, чтобы превратить избранника в монстра, берсерка-мстителя. Тэруми надел маску Хадзамы, офицера НУБ, и Рагна поклялся уничтожить Библиотеку, заработав в последующих войнах клички «Кровавое лезвие» и «Жнец Смерти». История много раз шла по кругу, пока, наконец, великий и ужасный Рагна Бладэдж не встретил однажды юную оперативницу Ноэль, очень похожую на погибшую сестру Сайю. Станет ли эта встреча тем камушком, что выбрасывает колесо времени из колеи порочного круга? Мы не знаем, но, как всегда, надеемся!
© Hollow, World Art

В названии франшизы BlazBlue – это сокращенное Blaze Blue, т. е. «голубая вспышка». В оригинале оружие главного героя зовется Ao no Madoshou – «Голубой Гримуар».
Информационные ссылки: AniDB || World Art || MAL
Качество: BDRip
Энкод: Winter - RG Pantheon
Тип видео: без хардсаба, без линковки
Формат: mkv
Видео: x264 (Hi10p), 1280x720, ~3700 Kbps, 23.976 fps
Аудио JAP: Vorbis, 48000Hz, ~256 Kbps, 2ch
Аудио RUS 1-3: AC3, 48000Hz, ~192 Kbps, 2ch (внешними файлами)
<ol class="post-ul">
одноголосая (муж.) от MifSnaiper (ARRU) [1-2]

двухголосая (муж./жен.) от Соловей & becky (Opendub)

трехголосая от Metacarmex & Zendos & Say (Anilibria)
</ol>
01. The Red Rebel
02. The Azure Successor
03. The Observing Eye
04. Probabilistic Events
05. The Pair of White Guns
06. False World
07. The Wings of Judgment
08. The Mechanical Soul
[url]...4563386[/url]
[url]...4556860[/url]
[url]...4557299[/url]
- BDRip
Общее
Уникальный идентификатор : 188929215728930843134328543522446518282 (0x8E227182482C2035B2E73871E5E6280A)
Полное имя : Z:\Anime\720p\BlazBlue - Alter Memory [BD] [720p]\[Winter] BlazBlue - Alter Memory 02 [BDrip 1280x720 x264 Vorbis].mkv
Формат : Matroska
Версия формата : Version 2
Размер файла : 675 Мбайт
Продолжительность : 23 м.
Режим общего битрейта : Переменный
Общий поток : 4056 Кбит/сек
Дата кодирования : UTC 2014-09-18 19:31:45
Программа кодирования : mkvmerge v2.9.8 ('C'est le bon') built on Aug 13 2009 12:49:06
Библиотека кодирования : libebml v0.7.7 + libmatroska v0.8.1

Видео
Идентификатор : 1
Формат : AVC
Формат/Информация : Advanced Video Codec
Профиль формата : High 10@L4.1
Параметр CABAC формата : Да
Параметр ReFrames формата : 9 кадров
Идентификатор кодека : V_MPEG4/ISO/AVC
Продолжительность : 23 м.
Битрейт : 3719 Кбит/сек
Ширина : 1280 пикселей
Высота : 720 пикселей
Соотношение сторон : 16:9
Режим частоты кадров : Постоянный
Частота кадров : 23,976 кадра/сек
Цветовое пространство : YUV
Субдискретизация насыщенности : 4:2:0
Битовая глубина : 10 бит
Тип развёртки : Прогрессивная
Бит/(Пиксели*Кадры) : 0.168
Размер потока : 619 Мбайт (92%)
Библиотека кодирования : x264 core 132 r2309 3b1f1f7
Настройки программы : cabac=1 / ref=9 / deblock=1:-2:-2 / analyse=0x3:0x133 / me=umh / subme=9 / psy=1 / psy_rd=0.90:0.00 / mixed_ref=1 / me_range=24 / chroma_me=1 / trellis=2 / 8x8dct=1 / cqm=0 / deadzone=21,11 / fast_pskip=1 / chroma_qp_offset=-2 / threads=12 / lookahead_threads=2 / sliced_threads=0 / nr=0 / decimate=0 / interlaced=0 / bluray_compat=0 / constrained_intra=0 / bframes=8 / b_pyramid=2 / b_adapt=2 / b_bias=0 / direct=1 / weightb=1 / open_gop=0 / weightp=2 / keyint=250 / keyint_min=23 / scenecut=40 / intra_refresh=0 / rc=crf / mbtree=0 / crf=15.7 / qcomp=0.70 / qpmin=9 / qpmax=40 / qpstep=4 / ip_ratio=1.40 / pb_ratio=1.30 / aq=1:0.90
Default : Нет
Forced : Нет

Аудио
Идентификатор : 2
Формат : Vorbis
Параметр Floor формата : 1
Идентификатор кодека : A_VORBIS
Продолжительность : 23 м.
Вид битрейта : Переменный
Битрейт : 256 Кбит/сек
Каналы : 2 канала
Частота : 48,0 КГц
Метод сжатия : С потерями
Размер потока : 42,6 Мбайт (6%)
Библиотека кодирования : libVorbis (Schaufenugget) (20101101 (Schaufenugget))
Язык : Japanese
Default : Да
Forced : Нет


<ol class="post-ul">
Выбор видео, перевода, озвучки, а также типа сборки материала осуществляется релизером и не подлежит обсуждению. Если вы считаете, что раздаваемый материал противоречит правилам раздела "Аниме" rutracker.org, сообщите об этом одному из модераторов раздела.

В случае появления нового материала или же лучшего по качеству материала релизер оставляет за собой право обновить раздачу. В этом случае вам необходимо ознакомиться с изменениями (добавлениями) и перекачать торрент.

Данный релиз предназначен для просмотра на ПК. Воспроизведение на иных проигрывателях не гарантируется. Для просмотра рекомендуется Media Player Classic с установленным пакетом кодеков K-Lite.

Данный релиз содержит 10-битное видео (Hi10p). Для корректного воспроизведения обязательно используйте кодеки, поддерживающие 10-битное видео.
Обсудить проблемы с воспроизведением и получить дополнительную информацию можно [url=...3682344]здесь[/url].

Данный релиз предназначен для просмотра с внешними субтитрами и внешними звуковыми дорожками.
<ol class="post-ul">
Для просмотра с внешней звуковой дорожкой нужно:
перекинуть файлы .mka из папки "RUS Sound [<автор(ы) озвучки>]" в одну папку с видео и переключить звуковую дорожку в плеере при просмотре. Как это сделать в разных плеерах подробно описано [url=...2403326]здесь[/url].
Для просмотра с субтитрами нужно:
перекинуть файлы .ass из папки "RUS Subtitles [<автор(ы) перевода>]" в одну папку с видео - плеер подгрузит их автоматически при открытии видео.
</ol>

Если у вас возникли проблемы с просмотром, не связанные с описанным выше, сообщите о них автору раздачи посредством сообщения в теме или ЛС Aglenn.
</ol>


Трекер:  [ 08-Ноя-2014 21:00 ]

  

Скачать .torrent

Размер .torrent файла 32 KB


Размер: 5.33 GB
Хэш (hash) релиза: f275dbe5c665eed83f9e21c590e1d3606342e2be
Подписка на обновления:

Торренты, похожие на Лазурный Гримуар: Другие Воспоминания BlazBlue: Alter Memory скачать торрент

Форум Название Автор Размер S L Добавлен
Аниме | HD Rips ·· Лазурный Гримуар: Другие Воспоминания / BlazBlue: Alter Memory (Татибана Хидэки) [TV] [12 из 12] [Без хардсаба] [RUS(int), JAP, SUB] [2013 г., приключения, фэнтези, HDTVRip] [720p] Galfimbul 41870947373.9 GB 0 0 1460798235

12:17

16-Апр-16

Аниме | HD Rips ·· Лазурный Гримуар: Другие Воспоминания / BlazBlue: Alter Memory (Татибана Хидэки) [TV] [12 из 12] [без хардсаба] [RUS(ext), JAP+SUB] [2014 г., приключения, фэнтези, сёнэн, BDRip] [1080p] Galfimbul 1974170771118.39 GB 0 0 1449974380

05:39

13-Дек-15

Аниме | HD Rips ·· Лазурный Гримуар: Другие Воспоминания / BlazBlue: Alter Memory (Татибана Хидэки) [TV] [01 из 12] [Без хардсаба] [RUS(int), JAP, SUB] [2013 г., приключения, фэнтези, HDTVRip] [720p] Polarnik 346647275331 MB 0 0 1381438820

00:00

11-Окт-13

Аниме | HD Rips ·· Лазурный Гримуар: Другие Воспоминания / BlazBlue: Alter Memory (Татибана Хидэки) [TV] [01 из 12] [Без хардсаба] [JAP+SUB] [2013 г., приключения, HDTVRip] [720p] Polarnik 313005477299 MB 0 0 1381352049

23:54

9-Окт-13

Еще никто не оставлял запись к записи скачать торрент Лазурный Гримуар: Другие Воспоминания BlazBlue: Alter Memory . Будь первым!

!Обратная связь