Скачать порно через торрент [Puffynetwork.com WetAndPissy] Any Blackfox UnionPeer.org бесплатно онлайн HD качество

Скачать новое порно 2015, 2014 новинки через торрент UnionPeer.org

Порно торрент бесплатно ЮнионПир.орг

Если у вас наблюдаются проблемы со скриншотами, переходом по ссылками, скачиванием торрентов - проблемы в блокировщике рекламы AdBlock. #хорошегоДня!


Статистика раздачи
Размер:  1.7 GB   |    Зарегистрирован:  3 года   |    .torrent скачан:  721 раз   |   
Раздают:  1  
   
Загрузка...
 
Автор Сообщение

Galfimbul

avatar Galfimbul


Drops Of Any

Имя актрисы: Any Blackfox
Название ролика: Drops Of Any
Номер на сайте: 06.11.14
Подсайт и сайт: Puffynetwork.com / WetAndPissy
Год производства: 2014 г.
Жанр: Pissing, Degustation, Wet panties, Toys.
Продолжительность: 00:29:49

Описание: This sexy blonde loves to tease and has a lot of fun in her debut pissing scene for Wet and Pissy. Dressed in a blue tank top and denim hotpants, she drizzles a stream of piss through her crotch onto the leather sofa below. She enjoys every minute of it and runs her hands over her wet crotch. Laying back, she pisses over herself and licks up the juices with her tongue. This horny babe pisses into a big glass bowl and dips her sexy hair into it, letting beads of golden piss dribble down her tits and onto her toned stomach. Finishing herself off with a dildo, she releases one more pee onto its shaft. Wow!

Тип HD видео: 1080p
Формат видео: MP4
Видео кодек: H.264/AVC
Аудио кодек: AAC
Видео: H264 1920x1080 ~7995 Kbps 25 fps 0.154 bit/pixel
Аудио: AAC 48000Hz 2ch 157kbps
E:\Video\stream\wet\video-drops-of-any_1080P.mp4
General
Complete name : E:\Video\stream\wet\video-drops-of-any_1080P.mp4
Format : MPEG-4
Format profile : Base Media
Codec ID : isom
File size : 1.70 GiB
Duration : 29mn 49s
Overall bit rate mode : Variable
Overall bit rate : 8 156 Kbps
Encoded date : UTC 2014-11-05 13:47:22
Tagged date : UTC 2014-11-05 13:47:22
Video #1
ID : 1
Format : AVC
Format/Info : Advanced Video Codec
Format profile : Main@L4.2
Format settings, CABAC : Yes
Format settings, ReFrames : 3 frames
Codec ID : avc1
Codec ID/Info : Advanced Video Coding
Duration : 29mn 49s
Bit rate : 7 667 Kbps
Maximum bit rate : 19.7 Mbps
Width : 1 920 pixels
Height : 1 080 pixels
Display aspect ratio : 16:9
Frame rate mode : Constant
Frame rate : 25.000 fps
Standard : PAL
Color space : YUV
Chroma subsampling : 4:2:0
Bit depth : 8 bits
Scan type : Progressive
Bits/(Pixel*Frame) : 0.148
Stream size : 1.60 GiB (94%)
Language : English
Tagged date : UTC 2014-11-05 14:04:46
Material_Duration : 1789040
Material_StreamSize : 1787978496
Material_FrameCount : 44726
Audio #2
ID : 2
Format : AAC
Format/Info : Advanced Audio Codec
Format profile : LC
Codec ID : 40
Duration : 29mn 49s
Bit rate mode : Variable
Bit rate : 157 Kbps
Maximum bit rate : 161 Kbps
Channel(s) : 2 channels
Channel positions : Front: L R
Sampling rate : 48.0 KHz
Compression mode : Lossy
Stream size : 33.6 MiB (2%)
Language : English
Encoded date : UTC 2014-11-05 14:01:15
Tagged date : UTC 2014-11-05 14:04:46


Трекер:  [ 06-Ноя-2014 18:00 ]

  

Скачать .torrent

Размер .torrent файла 17 KB


Размер: 1.7 GB
Хэш (hash) релиза: fcee613e96bd78de243751dd53b7b9e1e4ce866b

Еще никто не оставлял запись к записи скачать торрент [Puffynetwork.com WetAndPissy] Any Blackfox . Будь первым!

!Обратная связь