Скачать порно через торрент Teens Do Porn 6 Подростки снимаются в порно 6 UnionPeer.org бесплатно онлайн HD качество

Скачать новое порно 2015, 2014 новинки через торрент UnionPeer.org

Порно торрент бесплатно ЮнионПир.орг

Если у вас наблюдаются проблемы со скриншотами, переходом по ссылками, скачиванием торрентов - проблемы в блокировщике рекламы AdBlock. #хорошегоДня!


Статистика раздачи
Размер:  2.29 GB   |    Зарегистрирован:  3 года   |    .torrent скачан:  228 раз   |   
Раздают:  1  
   
Загрузка...
 
Автор Сообщение

Galfimbul

avatar Galfimbul


Teens Do Porn 6 / Подростки снимаются в порно 6



Год производства: 2014 г.
Страна: США
Жанр: Gonzo, Legal teens, POV
Продолжительность: 02:28:09
Язык: Английский
Студия: Team Skeet
В ролях: Lucy Tyler, Kelly Diamond, Cali Hayes, Audrina Grace, Taylor White.

Описание: Audrina Grace - All natural, big teen tits! I love looking at your blue eyes when my dick`s in your mouth! Cali Hayes - Suck on my salty nuts! Now, that`s an ass! Kelly Diamond - Beg me for every inch! Give me a brown eye wink! Lucy Tyler - Bounce, baby bounce! Such a flexible girl! Taylor White - Lick my balls! Ride my dick like it`s a pogo stick!

Качество видео: DVDRip
Формат видео: MP4
Видео кодек: H.264/AVC
Аудио кодек: AAC
Видео: H264 1280x720 ~2141 Kbps 29.97 fps 0.078 bit/pixel
Аудио: AAC 48000Hz 2ch 62kbps
E:\Video\stream\ten\Teens Do Porn 6 ( NEW 2014 TEAM SKEET ) [ DVD Rip ].mp4
General
Complete name : E:\Video\stream\ten\Teens Do Porn 6 ( NEW 2014 TEAM SKEET ) [ DVD Rip ].mp4
Format : MPEG-4
Codec ID : M4V
File size : 2.29 GiB
Duration : 2h 28mn
Overall bit rate : 2 216 Kbps
Movie name : Teens Do Porn #6
Album : Gamelink
Performer : Team Skeet
Genre : Other
Writing application : Lavf54.63.104
Video #1
ID : 1
Format : AVC
Format/Info : Advanced Video Codec
Format profile : High@L4.0
Format settings, CABAC : Yes
Format settings, ReFrames : 5 frames
Codec ID : avc1
Codec ID/Info : Advanced Video Coding
Duration : 2h 28mn
Bit rate : 2 141 Kbps
Width : 1 280 pixels
Height : 720 pixels
Display aspect ratio : 16:9
Frame rate mode : Constant
Frame rate : 29.970 fps
Color space : YUV
Chroma subsampling : 4:2:0
Bit depth : 8 bits
Scan type : Progressive
Bits/(Pixel*Frame) : 0.078
Stream size : 2.22 GiB (97%)
Writing library : x264 core 118
Encoding settings : cabac=1 / ref=5 / deblock=1:0:0 / analyse=0x3:0x113 / me=umh / subme=8 / psy=1 / psy_rd=1.00:0.00 / mixed_ref=1 / me_range=16 / chroma_me=1 / trellis=1 / 8x8dct=1 / cqm=0 / deadzone=21,11 / fast_pskip=1 / chroma_qp_offset=-2 / threads=3 / sliced_threads=0 / nr=0 / decimate=1 / interlaced=0 / bluray_compat=0 / constrained_intra=0 / bframes=3 / b_pyramid=2 / b_adapt=2 / b_bias=0 / direct=3 / weightb=1 / open_gop=0 / weightp=2 / keyint=30 / keyint_min=3 / scenecut=40 / intra_refresh=0 / rc_lookahead=30 / rc=abr / mbtree=1 / bitrate=2141 / ratetol=1.0 / qcomp=0.60 / qpmin=0 / qpmax=69 / qpstep=4 / ip_ratio=1.40 / aq=1:1.00
Language : English
Audio #2
ID : 2
Format : AAC
Format/Info : Advanced Audio Codec
Format profile : LC
Codec ID : 40
Duration : 2h 28mn
Duration_LastFrame : -18ms
Bit rate mode : Constant
Bit rate : 62.0 Kbps
Channel(s) : 2 channels
Channel positions : Front: L R
Sampling rate : 48.0 KHz
Compression mode : Lossy
Stream size : 65.7 MiB (3%)
Language : English


Трекер:  [ 05-Ноя-2014 23:00 ]

  

Скачать .torrent

Размер .torrent файла 12 KB


Размер: 2.29 GB
Хэш (hash) релиза: a66c1ecbfbbff8c4e6c9988536da8ce5106684e9

Еще никто не оставлял запись к записи скачать торрент Teens Do Porn 6 Подростки снимаются в порно 6 . Будь первым!

!Обратная связь