Скачать порно через торрент Anal Perverts 2 Анальные Извращенцы 2 UnionPeer.org бесплатно онлайн HD качество

Скачать новое порно 2015, 2014 новинки через торрент UnionPeer.org

Порно торрент бесплатно ЮнионПир.орг

Если у вас наблюдаются проблемы со скриншотами, переходом по ссылками, скачиванием торрентов - проблемы в блокировщике рекламы AdBlock. #хорошегоДня!


Статистика раздачи
Размер:  2.08 GB   |    Зарегистрирован:  3 года   |    .torrent скачан:  479 раз   |   
Раздают:  1  
   
Загрузка...
 
Автор Сообщение

Galfimbul

avatar Galfimbul


Anal Perverts 2 / Анальные Извращенцы 2

Год производства: 2014 г.
Страна: США
Жанр: Anal, Gonzo
Продолжительность: 03:05:33
Язык: Английский
Режиссер: Mike Adriano
Студия: Evil Angel Video
В ролях: Amy Brooke, Jodi Taylor, Maddy O'Reilly, Mandy Muse, Samantha Bentley.

Описание: The title of spit and sodomy showcase “Anal Perverts #2” describes its starlets and director/performer Mike Adriano. Naturally curvy British brunette Samantha Bentley’s first U.S. anal scene includes a long, hot butt-fuck with repeated asshole gaping; she declares, “I love the taste of my ass and cum.” Mike coaches San Diego porn newby Mandy Muse’s anal workout. He plows her flexing, fleshy rear to gaping by a window overlooking the city and she deep-throats his dork ass-to-mouth. Bubbly blonde Amy Brooke’s God-sculpted ass and deep-seated lust make her the ultimate butt slut. Mike porks her on his patio’s outdoor bed ... Amy’s gaping rectum leaks lube and red intestinal innards. There’s graphic, sticky anal banana and butter play. Mike pairs bubble-butted Maddy O’Reilly and pretty Jodi Taylor in a slobbery round-robin of bunghole Frenching, backdoor plowing and gape tonguing that leaves the ladies’ faces fouled with spit and spunk.

Качество видео: WEB-DLRip
Формат видео: AVI
Видео кодек: XviD
Аудио кодек: MP3
Video: Xvid 624x352 ~1460 Kbps 29.97 fps 0.222 bit/pixel
Audio: MP3 44100Hz 2ch 128kbps (Английский)
E:\Video\stream\Anal_Perverts2\Analperverts01.avi
General
Complete name : E:\Video\stream\Anal_Perverts2\Analperverts01.avi
Format : AVI
Format/Info : Audio Video Interleave
File size : 518 MiB
Duration : 45mn 15s
Overall bit rate : 1 601 Kbps
Writing application : VirtualDubMod 1.5.10.2 (build 2540/release)
Writing library : VirtualDubMod build 2540/release
Video #0
ID : 0
Format : MPEG-4 Visual
Format profile : Advanced Simple@L5
Format settings, BVOP : 1
Format settings, QPel : No
Format settings, GMC : No warppoints
Format settings, Matrix : Default (MPEG)
Codec ID : XVID
Codec ID/Hint : XviD
Duration : 45mn 15s
Bit rate : 1 461 Kbps
Width : 624 pixels
Height : 352 pixels
Display aspect ratio : 16:9
Frame rate : 29.970 fps
Color space : YUV
Chroma subsampling : 4:2:0
Bit depth : 8 bits
Scan type : Progressive
Compression mode : Lossy
Bits/(Pixel*Frame) : 0.222
Stream size : 473 MiB (91%)
Writing library : XviD 1.2.0.dev47 (UTC 2006-11-01)
Audio #1
ID : 1
Format : MPEG Audio
Format version : Version 1
Format profile : Layer 3
Codec ID : 55
Codec ID/Hint : MP3
Duration : 45mn 15s
Bit rate mode : Constant
Bit rate : 128 Kbps
Channel(s) : 2 channels
Sampling rate : 44.1 KHz
Compression mode : Lossy
Stream size : 41.4 MiB (8%)
Alignment : Split accross interleaves
Interleave, duration : 33 ms (1.00 video frame)
Interleave, preload duration : 500 ms
Writing library : LAME3.97
Encoding settings : -m s -V 4 -q 2 -lowpass 17 -b 128


Трекер:  [ 01-Ноя-2014 19:30 ]

  

Скачать .torrent

Размер .torrent файла 11 KB


Размер: 2.08 GB
Хэш (hash) релиза: 2ffd0ec1d6cff0b5f52274b2ce35e6e4c0a77ac1

Торренты, похожие на Anal Perverts 2 Анальные Извращенцы 2 скачать торрент

Форум Название Автор Размер S L Добавлен
Гонзо-фильмы ·· Anal Perverts 2 / Анальные Извращенцы 2 (Mike Adriano, Evil Angel) [2014 г., All Sex, Anal, DVDRip] (Mandy Muse, Amy Brooke, Jodi Taylor, Samantha Bentley, Maddy O'Reilly) Galfimbul 21475192752 GB 0 0 1397122267

12:31

10-Апр-14

Еще никто не оставлял запись к записи скачать торрент Anal Perverts 2 Анальные Извращенцы 2 . Будь первым!

!Обратная связь