Скачать через торрент Повелитель волшебных стрел и девы войны Madan no Ou to Vanadis бесплатно Аниме Все серии на русском torrent

Если у вас наблюдаются проблемы со скриншотами, переходом по ссылками, скачиванием торрентов - проблемы в блокировщике рекламы AdBlock. #хорошегоДня!


Статистика раздачи
Размер:  1.62 GB   |    Зарегистрирован:  2 года 10 месяцев   |    .torrent скачан:  46 раз   |   
Раздают:  1  
   
Загрузка...
 
Автор Сообщение

Galfimbul

avatar Galfimbul


Повелитель волшебных стрел и девы войны / Madan no Ou to Vanadis

Страна: Япония
Год выпуска: 2014 г.
Жанр: приключения, фэнтези, боевик, сёнэн
Тип: TV
Продолжительность: 13 эп, ~25 мин. серия
Режиссер: Сато Тацуо
Студия:

Описание: Однажды бог подарил человеку волшебный лук. Все выпущенные из него стрелы всегда попадали в цель. Благодаря тому человеку и этому луку на континенте воцарил мир и порядок.
Но любой жизни приходит конец. Человек умер, а волшебный лук исчез.
На континенте вновь воцарилась война. Семеро дев войны "Ванадис", которым драконы даровали волшебные оружия правят семи провинциями континента.
И наша история начинается с встречи на поле боя одной из семерых Ванадис и талантливого лучника Тигрврумда Ворна.

Качество: HDTVRip
Тип релиза: Без хардсаба
Формат видео: MP4
Наличие линковки: Нет
Релиз/Автор рипа: [Leopard-Raws]
Видео: x264 (8 bit), 1280x720 , ~1746 kbps, 23.976 fps
Аудио: AAC, 192 kbps, 48.0 KHz, 2 ch Язык Японский
Аудио 2: AAC, 192 kbps, 48.0 KHz, 2 ch Язык Русский (внешним файлом) ; Озвучка : Двухголосая (муж. и жен.), Cuba77 & Nika Lenina sample
Субтитры: ass, внешние Язык субтитров русский ; Перевод: GMC(Koushin & Shifroval)
GeneralComplete name : D:\Madan no Ou to Vanadis\[Leopard-Raws] Madan no Ou to Vanadis - 01 RAW (ATX 1280x720 x264 AAC).mp4Format : MPEG-4Format profile : Base MediaCodec ID : isomFile size : 333 MiBDuration : 24mn 1sOverall bit rate mode : VariableOverall bit rate : 1 940 KbpsEncoded date : UTC 2014-10-05 14:07:07Tagged date : UTC 2014-10-05 14:07:07

VideoID : 1Format : AVCFormat/Info : Advanced Video CodecFormat profile : High@L4.1Format settings, CABAC : YesFormat settings, ReFrames : 4 framesCodec ID : avc1Codec ID/Info : Advanced Video CodingDuration : 23mn 59sBit rate : 1 746 KbpsMaximum bit rate : 9 160 KbpsWidth : 1 280 pixelsHeight : 720 pixelsDisplay aspect ratio : 16:9Frame rate mode : ConstantFrame rate : 23.976 fpsColor space : YUVChroma subsampling : 4:2:0Bit depth : 8 bitsScan type : ProgressiveBits/(Pixel*Frame) : 0.079Stream size : 300 MiB (90%)Title : 264:fps=23.976@GPAC0.5.1-DEV-rev4283Writing library : x264 core 129 r2245+729M 1a52e03Encoding settings : cabac=1 / ref=4 / deblock=1:1:-1 / analyse=0x3:0x113 / me=umh / subme=9 / psy=1 / fade_compensate=0.00 / psy_rd=1.00:0.00 / mixed_ref=1 / me_range=24 / chroma_me=1 / trellis=2 / 8x8dct=1 / cqm=0 / deadzone=21,11 / fast_pskip=1 / chroma_qp_offset=-2 / threads=8 / lookahead_threads=1 / sliced_threads=0 / nr=0 / decimate=1 / interlaced=0 / bluray_compat=0 / constrained_intra=0 / fgo=0 / bframes=9 / b_pyramid=2 / b_adapt=2 / b_bias=0 / direct=1 / weightb=1 / open_gop=0 / weightp=2 / keyint=240 / keyint_min=24 / scenecut=40 / intra_refresh=0 / rc=crf / mbtree=0 / crf=18.5 / qcomp=0.72 / qpmin=0 / qpmax=69 / qpstep=4 / ip_ratio=1.40 / pb_ratio=1.30 / aq=1:0.85Encoded date : UTC 2014-10-05 14:07:07Tagged date : UTC 2014-10-05 14:07:09Color primaries : BT.709Transfer characteristics : BT.709Matrix coefficients : BT.709

AudioID : 2Format : AACFormat/Info : Advanced Audio CodecFormat profile : LCCodec ID : 40Duration : 24mn 1sBit rate mode : VariableBit rate : 192 KbpsMaximum bit rate : 201 KbpsChannel(s) : 2 channelsChannel positions : Front: L RSampling rate : 48.0 KHzCompression mode : LossyStream size : 33.0 MiB (10%)Language : JapaneseEncoded date : UTC 2014-10-05 14:06:29Tagged date : UTC 2014-10-05 14:07:09
01.Принцесса ветра на поле брани
02.Возвращение домой
03.Возвращение легендарного лучника
04.Снежная принцесса и ледяной клык
[url]...4840054[/url]
наличие оригинальной (японской) звуковой дорожки (в комплекте с субтитрами)


Трекер:  [ 27-Окт-2014 17:30 ]

  

Скачать .torrent

Размер .torrent файла 18 KB


Размер: 1.62 GB
Хэш (hash) релиза: 00726436d9892e294c39629f89b77c98f20a0371
Подписка на обновления:

Торренты, похожие на Повелитель волшебных стрел и девы войны Madan no Ou to Vanadis скачать торрент

Форум Название Автор Размер S L Добавлен
Аниме | Rips ·· Повелитель волшебных стрел и девы войны / Madan no Ou to Vanadis / Lord Marksman and Vanadis [TV] [13 из 13] [Без хардсаба] [RUS(int), JAP+SUB] [2014, приключения, фэнтези, BDRip] [HWP] Galfimbul 52495193604.89 GB 0 0 1488171263

07:54

27-Фев-17

Аниме | HD Rips ·· Повелитель волшебных стрел и девы войны / Madan no Ou to Vanadis / Lord Marksman and Vanadis (Сато Тацуо) [TV+Special] [Без хардсаба] [13+6 из 13+14] [JAP+SUB] & [13+0 из 13+14] [RUS(ext)] [2014 г., приключения, фэнтези, BDRip] [1080p] Galfimbul 1916597470317.85 GB 0 0 1451228687

18:04

27-Дек-15

Аниме | HD Rips ·· Повелитель волшебных стрел и девы войны / Madan no Ou to Vanadis / Lord Marksman and Vanadis (Сато Тацуо) [TV+Special] [3+0-3 из 13+0-13] [Без хардсаба] [JAP+SUB] [2014 г., приключения, фэнтези, BDRip] [1080p] Galfimbul 46771904194.36 GB 0 0 1422638219

20:16

30-Янв-15

Аниме | Rips ·· Повелитель волшебных стрел и девы войны / Madan no Ou to Vanadis / Lord Marksman and Vanadis [TV] [01 из >12] [Без хардсаба] [RUS(int), JAP+SUB] [2014 г., приключения, фэнтези, HDTVRip] [HWP] Galfimbul 287136847274 MB 0 0 1413543907

14:05

17-Окт-14

Аниме | Rips ·· Повелитель волшебных стрел и девы войны / Madan no Ou to Vanadis [TV+Special] [13 из 13] [Без хардсаба] [RUS(int), JAP+SUB] [2014 г., приключения, фэнтези, HDTVRip] [HWP] Galfimbul 51659588564.81 GB 0 0 1469475118

22:31

25-Июл-16

Аниме | Rips ·· Повелитель волшебных стрел и девы войны / Madan no Ou to Vanadis (Сато Тацуо) [TV] [3 из 13] [без хардсаба] [RUS(ext), JAP+SUB] [2014 г., фэнтези, BDRip] [720p] Galfimbul 20976384081.95 GB 0 0 1419881275

22:27

29-Дек-14

Аниме | HD Rips ·· Повелитель волшебных стрел и девы войны / Madan no Ou to Vanadis (Сато Тацуо) [TV] [3 из 13] [без хардсаба] [RUS(ext), JAP+SUB] [2014 г., фэнтези, BDRip] [720p] Galfimbul 23074695082.15 GB 0 0 1419881266

22:27

29-Дек-14

Аниме | Rips ·· Повелитель волшебных стрел и девы войны / Madan no Ou to Vanadis [TV+Special] [01 из >12] [Без хардсаба] [RUS(int), JAP+SUB] [2014 г., приключения, фэнтези, HDTVRip] [HWP] Galfimbul 359790912343 MB 0 0 1414260294

21:04

25-Окт-14

Аниме | HD Rips ·· Повелитель волшебных стрел и девы войны / Madan no Ou to Vanadis [TV] [1 из 13] [Без хардсаба] [JAP+SUB, RUS(ext)] [2014 г., приключения, фэнтези, боевик, сёнэн, HDTVRip] [720p] Galfimbul 385365727368 MB 0 0 1413013196

10:39

11-Окт-14

Еще никто не оставлял запись к записи скачать торрент Повелитель волшебных стрел и девы войны Madan no Ou to Vanadis . Будь первым!

!Обратная связь