Скачать через торрент Святая семёрка Тринити: Семеро магов бесплатно Аниме Все серии на русском torrent

Если у вас наблюдаются проблемы со скриншотами, переходом по ссылками, скачиванием торрентов - проблемы в блокировщике рекламы AdBlock. #хорошегоДня!


Статистика раздачи
Размер:  636 MB   |    Зарегистрирован:  3 года   |    .torrent скачан:  51 раз   |   
Раздают:  1  
   
Загрузка...
 
Автор Сообщение

Galfimbul

avatar Galfimbul


Святая семёрка | Тринити: Семеро магов | Trinity Seven


Год выпуска: 2014
Страна: Япония
Жанр: приключения, комедия, фэнтези.
Режиссёр: Нисикиори Хироси.
Студия: Seven Arcs (подробнее...)

Перевод:
Русские субтитры:
<ol class="post-ul">
Перевод: Runari | Yudji
Редактура: Fukassei
</ol>
Описание: Жизнь Касуги Араты шла своим чередом, и все бы ничего, да вот только последние дни, прожитые нашим героем в мире и спокойствии, оказались не более чем иллюзией, созданной могущественным артефактом. Но стоило лишь ей развеяться, как правда предстала перед его глазами: солнце в небе стало черным, подруга детства исчезла, а родной город был стерт с лица земли… Все, что осталось у Араты - таинственный гримуар, создавший иллюзию, и жестокая реальность, с которой ему еще предстоит столкнуться...World Art.
Качество: HDTVRip | Формат: MP4 | Тип видео: без хардсаба | Продолжительность: ТВ (12 эп.), 25 мин. | Видео: [Leopard-Raws]
Видео кодек: H.264
Аудио кодек: AAC
Видео: H.264; 1280x720; ~1696Kbps, 23.976fps; (8 bit)
Аудио: JAP, AAC; 48000Hz; ~192Kbps (2ch);
[spoiler="Скриншоты [превью]"] [/spoiler]
01.Administer and Third Selection.
02.Prison Lock and Grimoire Security.

Общее
Полное имя : C:\Users\Home PC\Videos\Раздачи\Trinity Seven\Trinity Seven - 01.mp4
Формат : MPEG-4
Профиль формата : Base Media
Идентификатор кодека : isom
Размер файла : 324 Мбайт
Продолжительность : 23 м.
Режим общего битрейта : Переменный
Общий поток : 1891 Кбит/сек
Дата кодирования : UTC 2014-10-08 05:01:03
Дата пометки : UTC 2014-10-08 05:01:03

Видео
Идентификатор : 1
Формат : AVC
Формат/Информация : Advanced Video Codec
Профиль формата : High@L4.1
Параметр CABAC формата : Да
Параметр ReFrames формата : 4 кадра
Идентификатор кодека : avc1
Идентификатор кодека/Информация : Advanced Video Coding
Продолжительность : 23 м.
Битрейт : 1696 Кбит/сек
Максимальный битрейт : 22,5 Мбит/сек
Ширина : 1280 пикселей
Высота : 720 пикселей
Соотношение сторон : 16:9
Режим частоты кадров : Постоянный
Частота кадров : 23,976 кадра/сек
Цветовое пространство : YUV
Субдискретизация насыщенности : 4:2:0
Битовая глубина : 8 бит
Тип развёртки : Прогрессивная
Бит/(Пиксели*Кадры) : 0.077
Размер потока : 290 Мбайт (90%)
Заголовок : 264:fps=23.976@GPAC0.5.1-DEV-rev4283
Библиотека кодирования : x264 core 129 r2245+729M 1a52e03
Настройки программы : cabac=1 / ref=4 / deblock=1:1:-1 / analyse=0x3:0x113 / me=umh / subme=9 / psy=1 / fade_compensate=0.00 / psy_rd=1.00:0.00 / mixed_ref=1 / me_range=24 / chroma_me=1 / trellis=2 / 8x8dct=1 / cqm=0 / deadzone=21,11 / fast_pskip=1 / chroma_qp_offset=-2 / threads=8 / lookahead_threads=1 / sliced_threads=0 / nr=0 / decimate=1 / interlaced=0 / bluray_compat=0 / constrained_intra=0 / fgo=0 / bframes=9 / b_pyramid=2 / b_adapt=2 / b_bias=0 / direct=1 / weightb=1 / open_gop=0 / weightp=2 / keyint=240 / keyint_min=24 / scenecut=40 / intra_refresh=0 / rc=crf / mbtree=0 / crf=18.5 / qcomp=0.72 / qpmin=0 / qpmax=69 / qpstep=4 / ip_ratio=1.40 / pb_ratio=1.30 / aq=1:0.85
Дата кодирования : UTC 2014-10-08 05:01:03
Дата пометки : UTC 2014-10-08 05:01:05
Основные цвета : BT.709
Характеристики трансфера : BT.709
Коэффициенты матрицы : BT.709

Аудио
Идентификатор : 2
Формат : AAC
Формат/Информация : Advanced Audio Codec
Профиль формата : LC
Идентификатор кодека : 40
Продолжительность : 23 м.
Вид битрейта : Переменный
Битрейт : 192 Кбит/сек
Максимальный битрейт : 222 Кбит/сек
Каналы : 2 канала
Расположение каналов : Front: L R
Частота : 48,0 КГц
Метод сжатия : С потерями
Размер потока : 32,8 Мбайт (10%)
Язык : Japanese
Дата кодирования : UTC 2014-10-07 17:42:02
Дата пометки : UTC 2014-10-08 05:01:05

Внимание! Это обновляемая раздача. Серии добавляются по мере выхода русских субтитров.
Торрент обновлён. Добавлена вторая серия.[17.10.2014]


Трекер:  [ 17-Окт-2014 21:00 ]

  

Скачать .torrent

Размер .torrent файла 13 KB


Размер: 636 MB
Хэш (hash) релиза: 84fb97a0bbabb674014330967aaefd1fe7d90625
Подписка на обновления:

Торренты, похожие на Святая семёрка Тринити: Семеро магов скачать торрент

Форум Название Автор Размер S L Добавлен
Аниме | HD Rips ·· Святая семерка / Trinity Seven / Тринити: Семеро магов [TV] [1-3 из 12] [Без хардсаба] [JAP, RUS(ext), SUB] [2014 г., Экшен, Комедия, Этти, Фэнтези, Магия, Романтика, Школа, Сёнен, Гарем, Сверхъестественное, WEBRip] [1080p] Galfimbul 18236815351.7 GB 0 0 1417548976

22:36

2-Дек-14

Еще никто не оставлял запись к записи скачать торрент Святая семёрка Тринити: Семеро магов . Будь первым!

!Обратная связь