Скачать через торрент Магия Кайто 1412 Magic Kaito 1412 бесплатно Аниме Все серии на русском torrent

Если у вас наблюдаются проблемы со скриншотами, переходом по ссылками, скачиванием торрентов - проблемы в блокировщике рекламы AdBlock. #хорошегоДня!


Статистика раздачи
Размер:  360 MB   |    Зарегистрирован:  2 года 11 месяцев   |    .torrent скачан:  18 раз   |   
Раздают:  1  
   
Загрузка...
 
Автор Сообщение

Galfimbul

avatar Galfimbul



Страна: Япония
Год выпуска: 2014-2015
Жанр: Приключения, комедия
Продолжительность: ТВ (24 эп), 25 мин.
Выпуск: c 04.10.2014
Озвучивание: Nighteon & Mai
По переводу: ShinkaDan
- Перевод с японского: AnjiJa и Yuto
- Редакция, тайминг, оформление: Natan
- Редакторские правки: Tami и Язва
Режиссер: Кудо Сусуму
Снято по манге: Magic Kaitou
Автор оригинала: Аояма Госё

Студия:
Описание: Отец старшеклассника Куробы Кайто был гениальным фокусником, вторая личина которого - Кайто Кид, всемирно известный знаменитый вор. Однако во время магического шоу в результате непредвиденного несчастного случая отец Куробы Кайто скончался. Спустя 8 лет, случайно узнав о второй личине своего отца, Кайто начал подозревать, что его смерть была не просто несчастным случаем, а, возможно, его убили. С целью пролить свет истины на эти подозрения, надев шелковую шляпу и закутавшись в белую мантию, он пошел по стопам отца и стал вторым Кайто Кидом!
Качество: HDTVRip (720p)
Тип релиза: Без хардсаба
Формат видео: MP4
Автор рипа: [모에-Raws]
Видео: x264 (8 бит) 1280x720, 23,976 кадра/сек, ~2058 Кбит/сек
Аудио:
- AAC, 2 канала (стерео), 48000Hz, ~192 Кбит/сек; RU;
- AAC, 2 канала (стерео), 48000Hz, ~161 Кбит/сек; JAP
Дополнительная информация:
Это авторская раздача.
ОбщееПолное имя : N:\Detective Conan RAW\Magic Kaito 1412 (Ремейк)\[ShinkaDan] Magic Kaito 1412 #01 (YTV 1280x720 x264 AAC).mp4Формат : MPEG-4Профиль формата : Base MediaИдентификатор кодека : isomРазмер файла : 356 МбайтПродолжительность : 24 м.Режим общего битрейта : ПеременныйОбщий поток : 2058 Кбит/секДата кодирования : UTC 2014-10-15 18:21:03Дата пометки : UTC 2014-10-15 18:21:03

ВидеоИдентификатор : 1Формат : AVCФормат/Информация : Advanced Video CodecПрофиль формата : High@L4.1Параметр CABAC формата : ДаПараметр ReFrames формата : 4 кадраИдентификатор кодека : avc1Идентификатор кодека/Информация : Advanced Video CodingПродолжительность : 24 м.Битрейт : 1700 Кбит/секМаксимальный битрейт : 11,1 Мбит/секШирина : 1280 пикселейВысота : 720 пикселейСоотношение сторон : 16:9Режим частоты кадров : ПостоянныйЧастота кадров : 23,976 кадра/секЦветовое пространство : YUVСубдискретизация насыщенности : 4:2:0Битовая глубина : 8 битТип развёртки : ПрогрессивнаяБит/(Пиксели*Кадры) : 0.077Размер потока : 294 Мбайт (83%)Библиотека кодирования : x264 core 140 r2377+40 929f149 tMod [8-bit@all X86_64]Настройки программы : cabac=1 / ref=4 / deblock=1:2:-2 / analyse=0x3:0x113 / me=umh / subme=9 / psy=1 / fade_compensate=0.00 / psy_rd=1.00:0.00 / mixed_ref=1 / me_range=32 / chroma_me=1 / trellis=2 / 8x8dct=1 / cqm=0 / deadzone=21,11 / fast_pskip=1 / chroma_qp_offset=-2 / threads=16 / lookahead_threads=1 / sliced_threads=0 / nr=0 / decimate=1 / interlaced=0 / bluray_compat=0 / constrained_intra=0 / fgo=0 / bframes=9 / b_pyramid=2 / b_adapt=2 / b_bias=0 / direct=3 / weightb=1 / open_gop=0 / weightp=2 / keyint=240 / keyint_min=24 / scenecut=40 / intra_refresh=0 / rc=crf / mbtree=0 / crf=19.0000 / qcomp=0.70 / qpmin=0:0:0 / qpmax=69:69:69 / qpstep=4 / ip_ratio=1.40 / pb_ratio=1.30 / aq=1:0.85 / aq-sensitivity=10.00 / aq-factor=1.00:1.00:1.00 / aq2=0 / aq3=0Дата кодирования : UTC 2014-10-04 10:41:46Дата пометки : UTC 2014-10-15 18:21:05

Аудио #1Идентификатор : 2Формат : AACФормат/Информация : Advanced Audio CodecПрофиль формата : LCИдентификатор кодека : 40Продолжительность : 24 м.Вид битрейта : ПеременныйБитрейт : 192 Кбит/секМаксимальный битрейт : 238 Кбит/секКаналы : 2 каналаРасположение каналов : Front: L RЧастота : 48,0 КГцМетод сжатия : С потерямиРазмер потока : 33,2 Мбайт (9%)Заголовок : Nighteon & MaiЯзык : RussianДата кодирования : UTC 2014-10-15 18:21:03Дата пометки : UTC 2014-10-15 18:21:05

Аудио #2Идентификатор : 3Формат : AACФормат/Информация : Advanced Audio CodecПрофиль формата : LCИдентификатор кодека : 40Продолжительность : 24 м.Вид битрейта : ПеременныйБитрейт : 161 Кбит/секМаксимальный битрейт : 208 Кбит/секКаналы : 2 каналаРасположение каналов : Front: L RЧастота : 48,0 КГцМетод сжатия : С потерямиРазмер потока : 27,8 Мбайт (8%)Дата кодирования : UTC 2014-10-15 18:21:04Дата пометки : UTC 2014-10-15 18:21:05
01. Возрождение вора Кайто Кида!
02. "Синий самородок"!
03. ................................
[url]...4841651[/url] - наличие русской озвучки.


Трекер:  [ 16-Окт-2014 22:30 ]

  

Скачать .torrent

Размер .torrent файла 15 KB


Размер: 360 MB
Хэш (hash) релиза: abf93806359179a9cb8a1df788a0462ff51a4fad
Подписка на обновления:

Торренты, похожие на Магия Кайто 1412 Magic Kaito 1412 скачать торрент

Форум Название Автор Размер S L Добавлен
Аниме | HD Rips ·· Магия Кайто Кида / Magic Kaito 1412 (Кудо Сусуму) [TV] [24 из 24] [Без хардсаба] [JAP+SUB] [2014-2015, детектив, приключения, BDRip] [1080p] Galfimbul 4760408855244.33 GB 0 0 1497643312

23:01

16-Июн-17

Еще никто не оставлял запись к записи скачать торрент Магия Кайто 1412 Magic Kaito 1412 . Будь первым!

!Обратная связь