Скачать через торрент Изгнанник Акито Code Geass: Boukoku no Akito бесплатно Аниме Все серии на русском torrent

Если у вас наблюдаются проблемы со скриншотами, переходом по ссылками, скачиванием торрентов - проблемы в блокировщике рекламы AdBlock. #хорошегоДня!


Статистика раздачи
Размер:  4.45 GB   |    Зарегистрирован:  2 года 11 месяцев   |    .torrent скачан:  47 раз   |   
Раздают:  1  
   
Загрузка...
 
Автор Сообщение

Galfimbul

avatar Galfimbul



Год выпуска: 2012
Страна: Япония
Жанр: фантастика, меха
Продолжительность: ОВА, 4 эп. по 50 мин.
Выпуск: c 04.08.2012 по ??.07.2015
Перевод:
<ol class="post-ul">
русские субтитры от AleX_MytH & Angie & BO3DYX (полные/вспомогательные) [1]

русские субтитры от Azrael (полные/вспомогательные) [2]
</ol>
Режиссер: Аканэ Кадзуки
Студия: Sunrise
Описание:
Главные герои – одиннадцать пилотов военного корпуса Найтмэров из зоны 11, посланных на выручку другому взводу куда-то в Европу. Недостаток у миссии лишь один – вероятность её успешного завершения составляет всего 5 %, что говорит о том, что риск провала очень велик.
© AlterEgo

Место действия — территория Евросоюза (в оригинальном сериале оный только упоминался). После проведения рискованной операции по спасению войск ЕС, попавших в окружение под Нарвой, молодая аристократка Лейла Малкаль занимает пост командира спецподразделения W-0. Всё подразделение по сути такой себе штрафбат, где служат "неблагонадёжные" офицеры да пилоты из числа японских беженцев (которые надеются заработать гражданство). Да-да, сбежав от злобных британцев в ЕС, японцы всё равно оказались в положении унтерменшей.
© Nachtwandler1988
Информационные ссылки: AniDB || World Art || MAL
Качество: BDRip
Энкод: Winter - RG Pantheon
Тип видео: без хардсаба, без линковки
Формат: mkv
Видео: x264 (Hi10P), 1280x720, ~3300 Kbps, 23.976 fps
Аудио JAP: AC-3, 48000Hz, 640 Kbps, 5.1ch
Аудио RUS 1: AC3, 48000Hz, ~192 Kbps, 2ch (внешними файлами)
Аудио RUS 2: AC3, 48000Hz, ~192 Kbps, 2ch (внешними файлами)
Аудио RUS 3: AC3, 48000Hz, ~192 Kbps, 2ch (внешними файлами)
Аудио RUS 4-5: AC3, 48000Hz, ~640 Kbps, 5.1ch (внешними файлами)
<ol class="post-ul">
одноголосая (муж.) от Valkrist (MCA) [1]
одноголосая (муж.) от Ryc99

двухголосая (муж./жен.) от Cuba77 & Nika Lenina (Anidub)
двухголосая (муж./жен.) от loster & Emeri (LE-production) [1]
двухголосая (муж./жен.) от Mistake & Mirra (Opendub) [1]
</ol>
01. The Wyvern Has Landed
02. The Torn Wyvern
[url]...4337075[/url]
[url]...4846102[/url]
- 720p
[url]...4349330[/url]
- лучшее качество видео
там
тут
Общее
Уникальный идентификатор : 183536518030819890577775179687720944754 (0x8A13D8FC141767E092EB4760A7588472)
Полное имя : Z:\Anime\720p\Code Geass - Boukoku no Akito [BD] [720p]\[Winter] Code Geass - Boukoku no Akito 01 [BDrip 1280x720 x264 AC-3].mkv
Формат : Matroska
Версия формата : Version 2
Размер файла : 1,43 Гбайт
Продолжительность : 51 м.
Общий поток : 4011 Кбит/сек
Дата кодирования : UTC 2013-02-01 20:54:04
Программа кодирования : mkvmerge v2.9.8 ('C'est le bon') built on Aug 13 2009 12:49:06
Библиотека кодирования : libebml v0.7.7 + libmatroska v0.8.1

Видео
Идентификатор : 1
Формат : AVC
Формат/Информация : Advanced Video Codec
Профиль формата : High 10@L4.1
Параметр CABAC формата : Да
Параметр ReFrames формата : 9 кадров
Идентификатор кодека : V_MPEG4/ISO/AVC
Продолжительность : 51 м.
Битрейт : 3291 Кбит/сек
Ширина : 1280 пикселей
Высота : 720 пикселей
Соотношение сторон : 16:9
Режим частоты кадров : Постоянный
Частота кадров : 23,976 кадра/сек
Цветовое пространство : YUV
Субдискретизация насыщенности : 4:2:0
Битовая глубина : 10 бит
Тип развёртки : Прогрессивная
Бит/(Пиксели*Кадры) : 0.149
Размер потока : 1,17 Гбайт (82%)
Библиотека кодирования : x264 core 125 r2200 999b753
Настройки программы : cabac=1 / ref=9 / deblock=1:-2:-2 / analyse=0x3:0x133 / me=umh / subme=9 / psy=1 / psy_rd=0.90:0.00 / mixed_ref=1 / me_range=24 / chroma_me=1 / trellis=2 / 8x8dct=1 / cqm=0 / deadzone=21,11 / fast_pskip=1 / chroma_qp_offset=-2 / threads=6 / lookahead_threads=1 / sliced_threads=0 / nr=0 / decimate=0 / interlaced=0 / bluray_compat=0 / constrained_intra=0 / bframes=8 / b_pyramid=2 / b_adapt=2 / b_bias=0 / direct=1 / weightb=1 / open_gop=0 / weightp=2 / keyint=250 / keyint_min=23 / scenecut=40 / intra_refresh=0 / rc=crf / mbtree=0 / crf=15.7 / qcomp=0.70 / qpmin=9 / qpmax=40 / qpstep=4 / ip_ratio=1.40 / pb_ratio=1.30 / aq=1:0.90
Default : Нет
Forced : Нет

Аудио
Идентификатор : 2
Формат : AC-3
Формат/Информация : Audio Coding 3
Расширение режима : CM (complete main)
Параметр Endianness формата : Big
Идентификатор кодека : A_AC3
Продолжительность : 51 м.
Вид битрейта : Постоянный
Битрейт : 640 Кбит/сек
Каналы : 6 каналов
Расположение каналов : Front: L C R, Side: L R, LFE
Частота : 48,0 КГц
Битовая глубина : 16 бит
Метод сжатия : С потерями
Размер потока : 234 Мбайт (16%)
Язык : Japanese
Default : Да
Forced : Нет


<ol class="post-ul">
Выбор видео, перевода, озвучки, а также типа сборки материала осуществляется релизером и не подлежит обсуждению. Если вы считаете, что раздаваемый материал противоречит правилам раздела "Аниме" rutracker.org, сообщите об этом одному из модераторов раздела.

В случае появления нового материала или же лучшего по качеству материала релизер оставляет за собой право обновить раздачу. В этом случае вам необходимо ознакомиться с изменениями (добавлениями) и перекачать торрент.

Данный релиз предназначен для просмотра на ПК. Воспроизведение на иных проигрывателях не гарантируется. Для просмотра рекомендуется Media Player Classic с установленным пакетом кодеков K-Lite.

Данный релиз содержит 10-битное видео (Hi10p). Для корректного воспроизведения обязательно используйте кодеки, поддерживающие 10-битное видео.
Обсудить проблемы с воспроизведением и получить дополнительную информацию можно [url=...3682344]здесь[/url].

Данный релиз предназначен для просмотра с внешними субтитрами и внешними звуковыми дорожками.
<ol class="post-ul">
Для просмотра с внешней звуковой дорожкой нужно:
перекинуть файлы .mka из папки "RUS Sound [<автор(ы) озвучки>]" в одну папку с видео и переключить звуковую дорожку в плеере при просмотре. Как это сделать в разных плеерах подробно описано [url=...2403326]здесь[/url].
Для просмотра с субтитрами нужно:
перекинуть файлы .ass из папки "RUS Subtitles [<автор(ы) перевода>]" в одну папку с видео - плеер подгрузит их автоматически при открытии видео.
</ol>

Если у вас возникли проблемы с просмотром, не связанные с описанным выше, сообщите о них автору раздачи посредством сообщения в теме или ЛС Aglenn.
</ol>


Трекер:  [ 16-Окт-2014 02:00 ]

  

Скачать .torrent

Размер .torrent файла 24 KB


Размер: 4.45 GB
Хэш (hash) релиза: 40ef703835f5b710e1265e11ef3826159e191a77
Подписка на обновления:

Торренты, похожие на Изгнанник Акито Code Geass: Boukoku no Akito скачать торрент

Форум Название Автор Размер S L Добавлен
Аниме | Rips ·· Код Гиасс: Изгнанник Акито / Code Geass: Boukoku no Akito / Code Geass: Akito the Exiled [OVA] [2 из 5] [Без хардсаба] [RUS(ext), JAP+SUB] [2012 г., приключения, меха, BDRip] Galfimbul 20476002461.91 GB 0 0 1434461342

16:29

16-Июн-15

Аниме | HD Rips ·· Код Гиасс: Изгнанник Акито / Code Geass: Boukoku no Akito / Code Geass: Akito the Exiled (Аканэ Кадзуки) [OVA][2 из 4][без хардсаба][RUS(int), JAP+SUB][2012 г., приключения, меха, BDRemux][1080p] Galfimbul 3471841242632.33 GB 0 0 1420847436

02:50

10-Янв-15

Аниме | Blu-Ray и BDRemux ·· Изгнанник Акито / Code Geass: Boukoku no Akito / Code Geass: Akito the Exiled (Аканэ Кадзуки) [OVA][1 из 4][без хардсаба][RUS(int), JAP+SUB][2012 г., приключения, меха, BDRemux][1080p] L 1609374275414.99 GB 0 0 1365259350

17:42

6-Апр-13

Аниме | HD Rips ·· Изгнанник Акито / Code Geass: Boukoku no Akito (Аканэ Кадзуки) [OVA] [1 из 4] [без хардсаба] [RUS(ext), JAP+SUB] [2012 г., приключения, меха, BDRip] [720p] Galfimbul 21227241251.98 GB 0 0 1359792240

11:04

2-Фев-13

Еще никто не оставлял запись к записи скачать торрент Изгнанник Акито Code Geass: Boukoku no Akito . Будь первым!

!Обратная связь