Скачать через торрент Тэнти - лишний! Любовь Ai Tenchi Muyou! бесплатно Аниме Все серии на русском torrent

Если у вас наблюдаются проблемы со скриншотами, переходом по ссылками, скачиванием торрентов - проблемы в блокировщике рекламы AdBlock. #хорошегоДня!


Статистика раздачи
Размер:  269 MB   |    Зарегистрирован:  3 года 1 месяц   |    .torrent скачан:  34 раза   |   
Раздают:  1  
   
Загрузка...
 
Автор Сообщение

Galfimbul

avatar Galfimbul


Тэнти - лишний! Любовь / Ai Tenchi Muyou!
Страна: Япония
Год выпуска: 2014 г.
Тип: TV
Жанр: комедия
Продолжительность: 50 эп. по 4 мин.
Субтитры: русские, софтсаб (отдельным файлом)
Формат: ass
Перевод: Наталия Ишова
Режиссер: Нэгиси Хироси

Студия:

Описание: «Вашу?» начали буйствовать, поэтому мир находится в опасности. Чтобы спасти мир от бед, Тэнти под прикрытием устраивается на работу в школу для девочек. Однако в его попытках спасти мир на его пути возникает множество препятствий.
Качество: HDTVRip | Равка: Leopard-Raws Формат: mp4 | Тип Видео: без хардсаба
Видео кодек: AVC
Видео: AVC, 8 bits, 1280x720, 1786 kbps, 23.976 fps, (16:9)
Аудио:
1. JP - AAC, 192 kbps, 48.0 KHz, 2 ch
1. Появление Тенти
Общее
Полное имя : C:\anime\Ai Tenchi Muyou!\[Leopard-Raws] Ai Tenchi Muyou! - 01 RAW (MX 1280x720 x264 AAC).mp4
Формат : MPEG-4
Профиль формата : Base Media
Идентификатор кодека : isom
Размер файла : 56,6 Мбайт
Продолжительность : 4 м. 0 с.
Режим общего битрейта : Переменный
Общий поток : 1979 Кбит/сек
Дата кодирования : UTC 2014-10-06 17:25:33
Дата пометки : UTC 2014-10-06 17:25:33

Видео
Идентификатор : 1
Формат : AVC
Формат/Информация : Advanced Video Codec
Профиль формата : High@L4.1
Параметр CABAC формата : Да
Параметр ReFrames формата : 4 кадра
Идентификатор кодека : avc1
Идентификатор кодека/Информация : Advanced Video Coding
Продолжительность : 3 м. 59 с.
Битрейт : 1786 Кбит/сек
Максимальный битрейт : 15,4 Мбит/сек
Ширина : 1280 пикселей
Высота : 720 пикселей
Соотношение сторон : 16:9
Режим частоты кадров : Постоянный
Частота кадров : 23,976 кадра/сек
Цветовое пространство : YUV
Субдискретизация насыщенности : 4:2:0
Битовая глубина : 8 бит
Тип развёртки : Прогрессивная
Бит/(Пиксели*Кадры) : 0.081
Размер потока : 51,1 Мбайт (90%)
Заголовок : 264:fps=23.976@GPAC0.5.1-DEV-rev4283
Библиотека кодирования : x264 core 129 r2245+729M 1a52e03
Настройки программы : cabac=1 / ref=4 / deblock=1:1:-1 / analyse=0x3:0x113 / me=umh / subme=9 / psy=1 / fade_compensate=0.00 / psy_rd=1.00:0.00 / mixed_ref=1 / me_range=24 / chroma_me=1 / trellis=2 / 8x8dct=1 / cqm=0 / deadzone=21,11 / fast_pskip=1 / chroma_qp_offset=-2 / threads=8 / lookahead_threads=1 / sliced_threads=0 / nr=0 / decimate=1 / interlaced=0 / bluray_compat=0 / constrained_intra=0 / fgo=0 / bframes=9 / b_pyramid=2 / b_adapt=2 / b_bias=0 / direct=1 / weightb=1 / open_gop=0 / weightp=2 / keyint=240 / keyint_min=24 / scenecut=40 / intra_refresh=0 / rc=crf / mbtree=0 / crf=19.0 / qcomp=0.72 / qpmin=0 / qpmax=69 / qpstep=4 / ip_ratio=1.40 / pb_ratio=1.30 / aq=1:0.85
Дата кодирования : UTC 2014-10-06 17:25:33
Дата пометки : UTC 2014-10-06 17:25:33
Основные цвета : BT.709
Характеристики трансфера : BT.709
Коэффициенты матрицы : BT.709

Аудио
Идентификатор : 2
Формат : AAC
Формат/Информация : Advanced Audio Codec
Профиль формата : LC
Идентификатор кодека : 40
Продолжительность : 4 м. 0 с.
Вид битрейта : Переменный
Битрейт : 192 Кбит/сек
Максимальный битрейт : 230 Кбит/сек
Каналы : 2 канала
Расположение каналов : Front: L R
Частота : 48,0 КГц
Метод сжатия : С потерями
Размер потока : 5,45 Мбайт (10%)
Язык : Japanese
Дата кодирования : UTC 2014-10-06 16:05:25
Дата пометки : UTC 2014-10-06 17:25:33


Трекер:  [ 14-Окт-2014 11:30 ]

  

Скачать .torrent

Размер .torrent файла 12 KB


Размер: 269 MB
Хэш (hash) релиза: d75468dad5823b161f4521d1c9f265ee298483e3
Подписка на обновления:

Торренты, похожие на Тэнти - лишний! Любовь Ai Tenchi Muyou! скачать торрент

Форум Название Автор Размер S L Добавлен
Аниме | Rips ·· Тэнти - лишний! Любовь / Ai Tenchi Muyou! [TV] [01-05 из 50] [Без хардсаба] [RUS(int)] [2014 г., комедия, HDTVRip] [720p] Galfimbul 346088253330 MB 0 0 1413317184

23:06

14-Окт-14

Аниме | HD Rips ·· Тэнти - лишний! Любовь / Ai Tenchi Muyou! [TV] [1 из 50] [Без хардсаба] [JAP, SUB] [2014 г., комедия, HDTVRip] [720p] Galfimbul 5939687757 MB 0 0 1412742694

07:31

8-Окт-14

Еще никто не оставлял запись к записи скачать торрент Тэнти - лишний! Любовь Ai Tenchi Muyou! . Будь первым!

!Обратная связь