Скачать через торрент Жила-была Жизнь Il etait une fois... la Vie бесплатно русская версия torrent активатор

Если у вас наблюдаются проблемы со скриншотами, переходом по ссылками, скачиванием торрентов - проблемы в блокировщике рекламы AdBlock. #хорошегоДня!


Статистика раздачи
Размер:  11.17 GB   |    Зарегистрирован:  6 лет 6 месяцев   |    .torrent скачан:  176 раз   |   
Раздают:  1  
   
Загрузка...
 
Автор Сообщение

dnickn

avatar dnickn


Жила-была Жизнь / Il etait une fois... la Vie


Страна: Франция
Жанр: Познавательный, мультипликационный, фантастика, приключения, семейный
Серии (количество): 26
Продолжительность: 26 x ~ 00:26:00
Год выпуска: 1987
Перевод: Авторский (одноголосый закадровый - Александр Середа)
Русские субтитры: нет

Режиссёр: Альбер Барилье / Albert Barillé
Роли озвучивали: Роже Карель, Энни Балестра, Ален Дорваль, Винсент Ропион, Заира Бенбабис, Жилль Лорен, Франсис Лакс, Хосе Люссьони, Джозеф Мейнред, Сади Реббо, Фредерик Витта

Описание: Сериал "Жила-была Жизнь" - третий французский занимательный мультипликационный сериал «Жили-были...».Эта серия предназначена для детей и взрослых,которым любопытно по поводу функционирования их тела. На популярном языке описываются биологические ткани и органы,их функции. На простом понятном для детей языке показаны процессы,происходящие в микромире человеческого организма. Как и в каждой серии мультфильмов "Жили-были..." мы видим Маэстро, Метро,Софи, Пьера, Пьерро, темноволосую красавицу Пси, Противного и т.д. Добавились новые герои - Джамбо, Глобинка, песик Хулиганчик (Буль-буль)...Но на этот раз они олицетворяют элементы или паразитов человеческого тела. Во Франции было выпущено семь детских мультсериалов, несущих познавательный и развивающий характер.
00. Вступление
01. Планета клеток
02. Рождение
03. Часовые тела
04. Костный мозг
05. Кровь
06. Тромбоциты
07. Сердце
08. Дыхание
09. Мозг
10. Нейроны
11. Глаз
12. Ухо
13. Кожа
14. Рот и зубы
15. Пищеварение
16. Печень
17. Почки
18 Лимфатическая система
19. Скелет
20. Мышцы и жировая ткань
21. Война с токсинами
22. Вакцинация
23. Гормоны
24. Цепь жизни
25. Ночная смена
26. А жизнь продолжается
Качество: DVDRip
Формат: AVI
Видео: XviD, 1300 Кбит/с, 25 к/с, 704x528
Аудио 1: Русский (МР3, 2 ch, 192 Кбит/с)
Аудио 2: Польский(Дубляж) (МР3, 2 ch, 128 Кбит/с)
Аудио 3: Французский (МР3, 2 ch, 128 Кбит/с)
Аудио 4: Английский (МР3, 2 ch, 128 Кбит/с)
Аудио 5: Немецкий (МР3, 2 ch, 128 Кбит/с)
Аудио 6: Испанский (МР3, 2 ch, 128 Кбит/с)
Аудио 7: Польский(Одноголосый) (МР3, 1 ch, 48 Кбит/с)

Субтитры: отсутствуют
 
GeneralComplete name : E:\Zhila-byla.zhizn.(1-26.serii.iz.26).1987.XviD.DVDRip.Reliz.Kinozal.TV\Zhila-byla.zhizn.(01.serija.iz.26).Kletka.1987.XviD.DVDRip.aviFormat : AVIFormat/Info : Audio Video InterleaveFile size : 430 MiBDuration : 24mn 56sOverall bit rate : 2 409 KbpsWriting application : VirtualDubModRus 1.5.10.2 (build 2542/release)Writing library : VirtualDubMod build 2542/release

VideoID : 0Format : MPEG-4 VisualFormat profile : Advanced Simple@L5Format settings, BVOP : YesFormat settings, QPel : NoFormat settings, GMC : No warppointsFormat settings, Matrix : Default (MPEG)Codec ID : XVIDCodec ID/Hint : XviDDuration : 24mn 56sBit rate : 1 395 KbpsWidth : 720 pixelsHeight : 536 pixelsDisplay aspect ratio : 4:3Frame rate : 25.000 fpsColor space : YUVChroma subsampling : 4:2:0Bit depth : 8 bitsScan type : ProgressiveBits/(Pixel*Frame) : 0.145Stream size : 249 MiB (58%)Writing library : XviD 1.2.1 (UTC 2008-12-04)

Audio #1ID : 1Format : MPEG AudioFormat version : Version 1Format profile : Layer 3Codec ID : 55Codec ID/Hint : MP3Duration : 24mn 56sBit rate mode : ConstantBit rate : 160 KbpsChannel(s) : 2 channelsSampling rate : 48.0 KHzStream size : 28.6 MiB (7%)Alignment : Aligned on interleavesInterleave, duration : 40 ms (1.00 video frame)Interleave, preload duration : 504 ms

Audio #2ID : 2Format : MPEG AudioFormat version : Version 1Format profile : Layer 3Mode : Joint stereoMode extension : MS StereoCodec ID : 55Codec ID/Hint : MP3Duration : 24mn 55sBit rate mode : ConstantBit rate : 128 KbpsChannel(s) : 2 channelsSampling rate : 48.0 KHzStream size : 22.8 MiB (5%)Alignment : Aligned on interleavesInterleave, duration : 40 ms (1.00 video frame)Interleave, preload duration : 504 msWriting library : LAME3.97 (beta)ЄЄЄЄЄ

Audio #3ID : 3Format : AC-3Format/Info : Audio Coding 3Mode extension : CM (complete main)Codec ID : 2000Duration : 24mn 56sBit rate mode : ConstantBit rate : 192 KbpsChannel(s) : 2 channelsChannel positions : Front: L RSampling rate : 48.0 KHzBit depth : 16 bitsStream size : 34.3 MiB (8%)Alignment : Split accross interleavesInterleave, duration : 40 ms (1.00 video frame)Interleave, preload duration : 500 ms

Audio #4ID : 4Format : AC-3Format/Info : Audio Coding 3Mode extension : CM (complete main)Codec ID : 2000Duration : 24mn 56sBit rate mode : ConstantBit rate : 192 KbpsChannel(s) : 2 channelsChannel positions : Front: L RSampling rate : 48.0 KHzBit depth : 16 bitsStream size : 34.3 MiB (8%)Alignment : Split accross interleavesInterleave, duration : 40 ms (1.00 video frame)Interleave, preload duration : 500 ms

Audio #5ID : 5Format : MPEG AudioFormat version : Version 1Format profile : Layer 3Mode : Joint stereoMode extension : MS StereoCodec ID : 55Codec ID/Hint : MP3Duration : 24mn 56sBit rate mode : ConstantBit rate : 128 KbpsChannel(s) : 2 channelsSampling rate : 48.0 KHzStream size : 22.8 MiB (5%)Alignment : Aligned on interleavesInterleave, duration : 40 ms (1.00 video frame)Interleave, preload duration : 504 ms

Audio #6ID : 6Format : MPEG AudioFormat version : Version 1Format profile : Layer 3Mode : Joint stereoMode extension : MS StereoCodec ID : 55Codec ID/Hint : MP3Duration : 24mn 55sBit rate mode : ConstantBit rate : 128 KbpsChannel(s) : 2 channelsSampling rate : 44.1 KHzStream size : 22.8 MiB (5%)Alignment : Split accross interleavesInterleave, duration : 40 ms (1.00 video frame)Interleave, preload duration : 500 ms

Audio #7ID : 7Format : MPEG AudioFormat version : Version 2Format profile : Layer 3Codec ID : 55Codec ID/Hint : MP3Duration : 24mn 55sBit rate mode : ConstantBit rate : 48.0 KbpsChannel(s) : 1 channelSampling rate : 24.0 KHzStream size : 8.56 MiB (2%)Alignment : Aligned on interleavesInterleave, duration : 40 ms (1.00 video frame)Interleave, preload duration : 504 ms
Любимый сериал детства. Нигде не мог найти. И вот...
Одноголосый перевод сделал я сам, с польской дорожки, поэтому не стоит особенно возражать, так как русского перевода не существует вообще!Плюс к этому для всех желающих,кому что,оставляю две польских, французскую, английскую, немецкую и испанскую аудиодорожки.Если кому надо,то лишние звуковые дорожки удаляются за несколько секунд в маленькой бесплатной программе VirtualDubMod 1.5.10.2.2542 - Файл-Открыть.Потом во вкладке потоки Потоки-Отключить-ОК-Сохранить как... Во вкладке видео дожно быть выбрано Прямопотоковое копирование.В этой же программе можно обрезать начальные и финальные титры.
Перевод делался на слух,минуя стадию субтитров.Плюс в быту я пользуюсь только украинским языком,поэтому возможны многие фоннетические ошибки и не совсем российские слова...
У кого неразбериха со звуком - слышны все дорожки сразу - замените встроенный в Windows проигрыватель,например на Media Player Classic ИЛИ обновите K-Lite Codec Pack или запишите на диск и спокойно смотрите на любом ДВД,поддерживающем МР4


Трекер:  [ 03-Апр-2011 21:39 ]

  

Скачать .torrent

Размер .torrent файла 226 KB


Размер: 11.17 GB
Хэш (hash) релиза: 723e7cc7b2805252b8213b8365f341f52dc588c5

Еще никто не оставлял запись к записи скачать торрент Жила-была Жизнь Il etait une fois... la Vie . Будь первым!

!Обратная связь