Скачать через торрент Зоопарк Zoomix бесплатно русская версия torrent активатор

Если у вас наблюдаются проблемы со скриншотами, переходом по ссылками, скачиванием торрентов - проблемы в блокировщике рекламы AdBlock. #хорошегоДня!


Статистика раздачи
Размер:  4.32 GB   |    Зарегистрирован:  6 лет 7 месяцев   |    .torrent скачан:  184 раза   |   
Раздают:  1  
   
Загрузка...
 
Автор Сообщение

dnickn

avatar dnickn


Зоопарк / Zoomix

Страна: Испания
Тематика: Мультсериал обучающий
Тип раздаваемого материала: Видеоурок
Продолжительность: ~ 0:03:00 серия
Год выпуска: 2008
Перевод: Профессиональный (полное дублирование)
Язык субтитров: нет

Описание: Вы знали, что крокодил Коко может жить до двух лет без единого кусочка еды? А паук Лили доживает аж до десяти лет? В каждом эпизоде новой программы "Зоопарк" исследуется жизнь разных животных. Малыши смогут узнать многое об их повадках, семьях, о том, как они выживают в мире дикой природы."Зоопарк" был создан для того, чтобы развлечь ребятишек реальными историями и удивительными фактами о жизни и повадках животных.

Качество : IPTVRip
Формат: DVD video
Видео кодек: MPEG2
Аудио кодек: MPEG
Видео: MPEG2 Video 704x576 (4:3) 25.00fps 9610kbps
Аудио: MPEG Audio 48000Hz stereo 224kbps
Video
ID : 224 (0xE0)
Format : MPEG Video
Format version : Version 2
Format profile : Main@Main
Format settings, BVOP : Yes
Format settings, Matrix : Default
Format settings, GOP : M=3, N=15
Duration : 5mn 43s
Bit rate mode : Variable
Bit rate : 4 986 Kbps
Nominal bit rate : 9 610 Kbps
Width : 704 pixels
Height : 576 pixels
Display aspect ratio : 4:3
Frame rate : 25.000 fps
Standard : PAL
Color space : YUV
Chroma subsampling : 4:2:0
Bit depth : 8 bits
Scan type : Progressive
Scan order : Bottom Field First
Compression mode : Lossy
Bits/(Pixel*Frame) : 0.492
Stream size : 204 MiB (94%)
Writing library : Created by Nero

Audio
ID : 192 (0xC0)
Format : MPEG Audio
Format version : Version 1
Format profile : Layer 2
Duration : 5mn 43s
Bit rate mode : Constant
Bit rate : 224 Kbps
Channel(s) : 2 channels
Sampling rate : 48.0 KHz
Compression mode : Lossy
Video delay : -40ms
Stream size : 9.16 MiB (4%)


Трекер:  [ 03-Апр-2011 21:33 ]

  

Скачать .torrent

Размер .torrent файла 25 KB


Размер: 4.32 GB
Хэш (hash) релиза: ab407b84f2cd7e5b88f44a6340cfd020db4ed9da

Еще никто не оставлял запись к записи скачать торрент Зоопарк Zoomix . Будь первым!

!Обратная связь