Скачать через торрент Mы ждём тебя летом Ano Natsu de Matteru бесплатно Аниме Все серии на русском torrent

Если у вас наблюдаются проблемы со скриншотами, переходом по ссылками, скачиванием торрентов - проблемы в блокировщике рекламы AdBlock. #хорошегоДня!


Статистика раздачи
Размер:  200 MB   |    Зарегистрирован:  3 года 2 месяца   |    .torrent скачан:  20 раз   |   
Раздают:  1  
   
Загрузка...
 
Автор Сообщение

Galfimbul

avatar Galfimbul


Мы ждём тебя летом / Ano Natsu de Matteru

Страна: Япония
Год выпуска: 2014 г.
Жанр: повседневность, романтика
Тип: OVA
Продолжительность: 25 мин.
Режиссер: Нагай Тацуюки
Студия: J.C.STAFF

Описание: Пронзительно-голубое небо. Белые облака неспешно плывут по нему и скрываются за линией зеленых гор, окружающих город. День за днем. Это забытое Богом место, где мало что случается, точнее, ничего не случается вообще. Но так было только до того момента, как одному местному жителю, по имени Кайто Кирисима, не стукнуло, как яблоко Ньютону, снять фильм. В это время в городе появляется Итика Такацуки, которая переворачивает его жизнь с ног на голову. Долгожданное лето скоро начнется.

Качество: BDRip
Тип релиза: Без хардсаба
Формат видео: MP4
Наличие линковки: Нет
Релиз/Автор рипа: volta_john
Видео: H264, 1920x1080, 8bits, 926kbps, 23.976fps
Аудио: AAC, 2ch, 114kbps, 48kHz Язык Японский
Субтитры: ass, отдельным файлом Язык субтитров русский ; Перевод: Ryuji ; Редактор: Mika ; Оформление: Hariton Harko
Format : MPEG-4Format profile : Base MediaCodec ID : isomFile size : 200 MiBDuration : 26mn 38sOverall bit rate mode : VariableOverall bit rate : 1 048 Kbps

VideoID : 1Format : AVCFormat/Info : Advanced Video CodecFormat profile : High@L4.1Format settings, CABAC : YesFormat settings, ReFrames : 9 framesCodec ID : avc1Codec ID/Info : Advanced Video CodingDuration : 26mn 38sBit rate : 930 KbpsMaximum bit rate : 18.6 MbpsWidth : 1 920 pixelsHeight : 1 080 pixelsDisplay aspect ratio : 16:9Frame rate mode : ConstantFrame rate : 23.976 fpsColor space : YUVChroma subsampling : 4:2:0Bit depth : 8 bitsScan type : ProgressiveBits/(Pixel*Frame) : 0.019Stream size : 177 MiB (89%)Writing library : x264 core 133 r2334 a3ac64bEncoding settings : cabac=1 / ref=9 / deblock=1:0:0 / analyse=0x3:0x133 / me=umh / subme=10 / psy=1 / psy_rd=0.50:0.00 / mixed_ref=1 / me_range=32 / chroma_me=1 / trellis=2 / 8x8dct=1 / cqm=0 / deadzone=21,11 / fast_pskip=0 / chroma_qp_offset=-2 / threads=18 / lookahead_threads=4 / sliced_threads=0 / nr=0 / decimate=0 / interlaced=0 / bluray_compat=0 / constrained_intra=0 / bframes=16 / b_pyramid=2 / b_adapt=2 / b_bias=0 / direct=3 / weightb=1 / open_gop=0 / weightp=1 / keyint=300 / keyint_min=1 / scenecut=40 / intra_refresh=0 / rc_lookahead=60 / rc=2pass / mbtree=1 / bitrate=930 / ratetol=1.0 / qcomp=0.70 / qpmin=0 / qpmax=48 / qpstep=12 / cplxblur=20.0 / qblur=0.5 / ip_ratio=1.40 / aq=2:1.00

AudioID : 2Format : AACFormat/Info : Advanced Audio CodecFormat profile : LCCodec ID : 40Duration : 26mn 38sBit rate mode : VariableBit rate : 114 KbpsMaximum bit rate : 123 KbpsChannel count : 2 channelsChannel positions : Front: L RSampling rate : 48.0 KHzCompression mode : LossyDelay relative to video : 83msStream size : 21.7 MiB (11%)


Трекер:  [ 03-Окт-2014 09:30 ]

  

Скачать .torrent

Размер .torrent файла 16 KB


Размер: 200 MB
Хэш (hash) релиза: 1751eac620f9c375575c4f1b07a2e949ebf34fdc
Подписка на обновления:

Торренты, похожие на Mы ждём тебя летом Ano Natsu de Matteru скачать торрент

Форум Название Автор Размер S L Добавлен
Аниме | HD Rips ·· Mы ждём тебя летом / Ano Natsu de Matteru [OVA] [1 из 1] [Без хардсаба] [JAP, SUB] [2014 г., повседневность, романтика, BDRip] [720p] Galfimbul 288203975275 MB 0 0 1415106291

16:04

4-Ноя-14

Еще никто не оставлял запись к записи скачать торрент Mы ждём тебя летом Ano Natsu de Matteru . Будь первым!

!Обратная связь