Скачать через торрент музыку Zaz - Zaz бесплатно без регистрации torrent

Если у вас наблюдаются проблемы со скриншотами, переходом по ссылками, скачиванием торрентов - проблемы в блокировщике рекламы AdBlock. #хорошегоДня!


Статистика раздачи
Размер:  481 MB   |    Зарегистрирован:  6 лет 6 месяцев   |    .torrent скачан:  88 раз   |   
Раздают:  1  
   
Загрузка...
 
Автор Сообщение

AqvaGen


Zaz / ZAZ - Limited Special Edition

Жанр: Nu Jazz, Chanson, Soul
Страна-производитель диска: Germany
Год издания диска: 2011
Издатель (лейбл): Playon (Sony Music)
Номер по каталогу: 88697861662
Аудио кодек: APE (*.ape)
Тип рипа: image+.cue
Битрейт аудио: lossless
Продолжительность: 54:30
Наличие сканов в содержимом раздачи: да

Треклист:
01. Les Passants (3:33)
02. Je Veux (3:39)
03. Le Long De La Route (3:29)
04. La Fée (2:53)
05. Trop Sensible (4:00)
06. Prends Garde A Ta Langue (3:41)
07. Ni Oui Ni Non (3:32)
08. Port Coton (2:56)
09. J'Aime A Nouveau (3:51)
10. Dans Ma Rue (4:41)
11. Eblouie Par La Nuit (2:43)
12. Je Veux (Unplugged) (3:48)
13. La fée (Unplugged) (4:29)
14. Ces petits riens (Live) (3:52)
15. Historia De Un Amor (Live) (3:22)
 
Exact Audio Copy V1.0 beta 1 from 15. November 2010

EAC extraction logfile from 2. April 2011, 2:25

Zaz / Zaz (Limited Special Edition)

Used drive : ASUS DRW-1604P Adapter: 11 ID: 0

Read mode : SecureUtilize accurate stream : YesDefeat audio cache : YesMake use of C2 pointers : No

Read offset correction : 48Overread into Lead-In and Lead-Out : NoFill up missing offset samples with silence : YesDelete leading and trailing silent blocks : NoNull samples used in CRC calculations : YesUsed interface : Native Win32 interface for Win NT & 2000

Used output format : Internal WAV RoutinesSample format : 44.100 Hz; 16 Bit; Stereo

TOC of the extracted CD

Track | Start | Length | Start sector | End sector --------------------------------------------------------- 1 | 0:00.00 | 3:33.32 | 0 | 16006 2 | 3:33.32 | 3:39.14 | 16007 | 32445 3 | 7:12.46 | 3:29.13 | 32446 | 48133 4 | 10:41.59 | 2:53.32 | 48134 | 61140 5 | 13:35.16 | 3:59.69 | 61141 | 79134 6 | 17:35.10 | 3:41.24 | 79135 | 95733 7 | 21:16.34 | 3:31.51 | 95734 | 111609 8 | 24:48.10 | 2:56.25 | 111610 | 124834 9 | 27:44.35 | 3:50.45 | 124835 | 142129 10 | 31:35.05 | 4:40.52 | 142130 | 163181 11 | 36:15.57 | 2:42.60 | 163182 | 175391 12 | 38:58.42 | 3:47.48 | 175392 | 192464 13 | 42:46.15 | 4:28.52 | 192465 | 212616 14 | 47:14.67 | 3:52.17 | 212617 | 230033 15 | 51:07.09 | 3:22.35 | 230034 | 245218

Range status and errors

Selected range

Filename D:\Music\Lossless\Zaz\2010 - Zaz - Zaz (Limited Special Edition)\Zaz - Zaz (Limited Special Edition).wav

Peak level 99.8 % Extraction speed 0.4 X Range quality 100.0 % Test CRC 7219C4F0 Copy CRC 7219C4F0 Copy OK

No errors occurred

AccurateRip summary

Track 1 not present in databaseTrack 2 not present in databaseTrack 3 not present in databaseTrack 4 not present in databaseTrack 5 not present in databaseTrack 6 not present in databaseTrack 7 not present in databaseTrack 8 not present in databaseTrack 9 not present in databaseTrack 10 not present in databaseTrack 11 not present in databaseTrack 12 not present in databaseTrack 13 not present in databaseTrack 14 not present in databaseTrack 15 not present in database

None of the tracks are present in the AccurateRip database

End of status report
REM GENRE Chanson
REM DATE 2011
REM DISCID DF0CC50F
REM COMMENT "ExactAudioCopy v1.0b1"
PERFORMER "Zaz"
TITLE "Zaz (Limited Special Edition)"
FILE "Zaz - Zaz (Limited Special Edition).ape" WAVE
TRACK 01 AUDIO
TITLE "Les Passants"
PERFORMER "Zaz"
INDEX 01 00:00:00
TRACK 02 AUDIO
TITLE "Je Veux"
PERFORMER "Zaz"
INDEX 00 03:33:20
INDEX 01 03:33:32
TRACK 03 AUDIO
TITLE "Le Long De La Route"
PERFORMER "Zaz"
INDEX 00 07:10:49
INDEX 01 07:12:46
TRACK 04 AUDIO
TITLE "La Fee"
PERFORMER "Zaz"
INDEX 00 10:39:54
INDEX 01 10:41:59
TRACK 05 AUDIO
TITLE "Trop Sensible"
PERFORMER "Zaz"
INDEX 00 13:33:33
INDEX 01 13:35:16
TRACK 06 AUDIO
TITLE "Prends Garde A Ta Langue"
PERFORMER "Zaz"
INDEX 01 17:35:10
TRACK 07 AUDIO
TITLE "Ni Oui Ni Non"
PERFORMER "Zaz"
INDEX 00 21:15:31
INDEX 01 21:16:34
TRACK 08 AUDIO
TITLE "Port Coton"
PERFORMER "Zaz"
INDEX 00 24:41:01
INDEX 01 24:48:10
TRACK 09 AUDIO
TITLE "J'Aime A Nouveau"
PERFORMER "Zaz"
INDEX 00 27:40:70
INDEX 01 27:44:35
TRACK 10 AUDIO
TITLE "Dans Ma Rue"
PERFORMER "Zaz"
INDEX 00 31:34:12
INDEX 01 31:35:05
TRACK 11 AUDIO
TITLE "Eblouie Par La Nuit"
PERFORMER "Zaz"
INDEX 00 36:13:57
INDEX 01 36:15:57
TRACK 12 AUDIO
TITLE "Je Veux (Unplugged)"
PERFORMER "Zaz"
INDEX 00 38:57:09
INDEX 01 38:58:42
TRACK 13 AUDIO
TITLE "La Fee (Unplugged)"
PERFORMER "Zaz"
INDEX 00 42:45:28
INDEX 01 42:46:15
TRACK 14 AUDIO
TITLE "Ces Petits Riens (Live)"
PERFORMER "Zaz"
INDEX 01 47:14:67
TRACK 15 AUDIO
TITLE "Historia De Un Amor (Live)"
PERFORMER "Zaz"
INDEX 00 51:05:58
INDEX 01 51:07:09


Трекер:  [ 03-Апр-2011 08:56 ]

  

Скачать .torrent

Размер .torrent файла 20 KB


Размер: 481 MB
Хэш (hash) релиза: d437a5bb52887f70d4f052039c0a83be84ec47d3

Торренты, похожие на Zaz - Zaz скачать торрент

Форум Название Автор Размер S L Добавлен
Jazz, Blues (mp3) ·· (Nu Jazz, Chanson, Soul) Zaz - ZAZ - Limited Special Edition - 2011, MP3, 320 kbps AqvaGen 300117100286 MB 2 0 1301811034

09:10

3-Апр-11

Jazz, Blues (lossless) ·· (nu jazz, chanson, soul, french, female vocal) Zaz - Zaz - 2010, FLAC (tracks+.cue+scans) lossless Bombardier545 325000054310 MB 0 0 1295899775

23:09

24-Янв-11

Jazz, Blues (mp3) ·· (Nu jazz, Chanson, Soul) Zaz - Zaz - 2010, MP3, 320 kbps engineer 170845735163 MB 0 0 1291197130

12:52

1-Дек-10

Еще никто не оставлял запись к записи скачать торрент Zaz - Zaz . Будь первым!

!Обратная связь